查看: 36|回复: 1

[动作片] 我不好惹/贝基:战斗女孩 Becky.2020.720p.BluRay.x264-WUTANG 2.53GB

[复制链接]

 成长值: 6410

级别:资源管理组

注册时间
2017-10-20
最后登录
2020-8-7
听众
1
收听
0
主题
100960
蓝光币
179194 枚
贡献
21715 点
发表于 5 天前 | 显示全部楼层 |阅读模式
6 H$ v! T8 {; m. M' t5 L
- `) I9 N1 C% l. y$ `0 o
5 `+ C) h% E, Q1 q: ~

+ `+ p4 m# l5 q& ^" U译  名 我欠好惹 / 贝基:战役女孩
6 f/ H+ Q( X% b$ [3 ]5 T8 }片  名 Becky8 H( p3 ~0 L% M
年  代 2020; |# z. }3 G' l% e* j
产  地 美国, H5 D- ?% A; W) f3 J  ]
类  别 行动 / 惊悚
0 @% ^( b5 q* ?* j' l: s. s+ \. Y6 Y语  言 英语% X0 g9 ~) R4 f& a! ^% w
上映日期 2020-06-05(美国)
3 N, `% I! g% B( LIMDb评分  5.7/10 from 5282 users
2 u. O, @# k- k/ j5 I, z( LIMDb链接  https://www.imdb.com/title/tt10314450" b3 n- S# j; f! a
豆瓣评分 5.4/10 from 1297 users, \; q* C9 l& u& a( b
豆瓣链接 https://movie.douban.com/subject/34818507/
# ~0 d" h( ~  @" h& X$ g! u片  长 100分钟4 M) x, N# q5 ^4 p) [4 m4 W
导  演 乔纳森·米洛特 Jonathan Milott / 加里·穆利昂 Cary Murnion
: C0 p; v& i( j编  剧 Nick Morris / Lane Skye / Ruckus Skye' ]' @' W% j2 [! n! d4 M! ?) n
主  演 露露·威尔逊 Lulu Wilson
5 t0 J& x! u4 _+ Q4 }       乔尔·麦克哈尔 Joel McHale' W$ l5 O1 O, ]% ?4 [& O: j1 C, q+ a  |
       凯文·詹姆斯 Kevin James/ a6 R" t2 f+ @/ N. w7 b
       阿曼达·布鲁盖尔 Amanda Brugel
; i6 j5 z% t& b' i       罗伯特·梅耶 Robert Maillet
: C8 e' B4 h4 j       瑞安·麦克唐纳德 Ryan McDonald7 a; L/ X# s. l  K8 W
       盖奇·格雷厄姆·阿布斯诺特 Gage Graham-Arbuthnot, }" z$ L: w# u
       约翰·D·希克曼 John D. Hickman
- j/ E; l: x5 G1 B- R0 m2 N& x, {2 V       Chandra Michaels
4 ]' i" }* z# u; m. H$ w       James McDougall
7 w& n* M3 [0 u  g9 x       Isaiah Rockcliffe- ]7 z3 T5 b3 W3 \2 ?$ I
       Mike Dara
# _. b% E* r6 Z( G. e* T! f. v% P       Andrew Siwik6 F8 Y. w8 Y) f- \* v* J2 ~
       Charles Boyland* T! q( A. {4 [& C
       Markus Radan
& n& m9 |+ ~) c' A) _2 G9 h+ x" g# v7 Z0 x3 j8 v" M6 ~1 Z
* M+ Q1 `$ C/ ?# F, n+ W; }) ^
标  签 血腥 | 复仇 | 犯罪 | 美国 | 惊悚 | 2020 | 行动 | 美国电影% g/ K- |/ A# ]5 P( }4 l

- X  H1 l4 u% D2 x" J* ], [简  介  5 u, X3 @. q; f- k  p. }$ @+ ?, t
8 S' H0 O. E2 t- O
  13岁小女孩反杀恶人。百口来到林中小屋想改良家庭关系,被逃狱犯人上门找麻烦。而好人虽残暴,却被女孩Becky经验……: s6 G- y  J  ]
: R7 t: |& R3 O
  1. Video- ?7 n6 Y1 c! Z
  2. ID                                       : 15 j! T0 P& Q; ]6 @! G5 J
  3. Format                                   : AVC
    + [& W: ?2 D7 y, ]4 t
  4. Format/Info                              : Advanced Video Codec
    ( P% Z2 }: x6 ^, d4 |. ^/ j
  5. Format profile                           : High@L4.1: S  X+ c+ f' w
  6. Format settings                          : CABAC / 8 Ref Frames
    4 o2 m8 S1 V7 b
  7. Format settings, CABAC                   : Yes
    ! d, ~) {$ C% h& V$ `/ `/ S; |
  8. Format settings, Reference frames        : 8 frames  {2 G  A% |! [
  9. Codec ID                                 : V_MPEG4/ISO/AVC0 @7 g% Z3 |. A7 s1 @/ x
  10. Duration                                 : 1 h 33 min! j" M4 l8 n4 u/ w" Z. W
  11. Bit rate                                 : 3 429 kb/s
      h( J+ s, k5 P+ y
  12. Width                                    : 1 280 pixels
    ; q! e3 \; l7 d! L6 r. A
  13. Height                                   : 536 pixels: l4 U; j# u8 x8 |5 o
  14. Display aspect ratio                     : 2.40:1
      t# P+ h0 `5 \& e9 {! o. G
  15. Frame rate mode                          : Constant
    9 |9 X* I; G  R2 K
  16. Frame rate                               : 23.976 (24000/1001/45378) FPS
    0 q+ S0 {$ s" t5 k3 _: c
  17. Color space                              : YUV
    6 z  P! C$ r( x
  18. Chroma subsampling                       : 4:2:0
    ' b; u4 a5 u7 ?
  19. Bit depth                                : 8 bits% Q1 C. L, Z! ?
  20. Scan type                                : Progressive
    , K. P! D* Y  w# j& a0 C+ n
  21. Bits/(Pixel*Frame)                       : 0.2088 i. h( a# d6 H$ ^( F  `3 i
  22. Stream size                              : 2.23 GiB (88%)7 @* |+ @3 w7 H8 ?
  23. Writing library                          : x264 core 161 r3018 db0d417( V$ F7 W0 }( h5 N& Q/ s
  24. Encoding settings                        : cabac=1 / ref=8 / deblock=1:-3:-3 / analyse=0x3:0x133 / me=umh / subme=9 / psy=1 / psy_rd=1.00:0.00 / mixed_ref=1 / me_range=32 / chroma_me=1 / trellis=2 / 8x8dct=1 / cqm=0 / deadzone=21,11 / fast_pskip=0 / chroma_qp_offset=-2 / threads=17 / lookahead_threads=2 / sliced_threads=0 / nr=0 / decimate=0 / interlaced=0 / bluray_compat=0 / constrained_intra=0 / bframes=9 / b_pyramid=2 / b_adapt=2 / b_bias=0 / direct=3 / weightb=1 / open_gop=0 / weightp=2 / keyint=250 / keyint_min=23 / scenecut=40 / intra_refresh=0 / rc=crf / mbtree=0 / crf=16.5 / qcomp=0.60 / qpmin=0 / qpmax=69 / qpstep=4 / ip_ratio=1.40 / pb_ratio=1.30 / aq=3:0.88
    # g+ x9 r) I8 t: G
  25. Default                                  : Yes7 j/ S3 \* T5 P) {9 [+ A) @
  26. Forced                                   : No
    6 ]% H& s: s& r8 Q: l" @! s
  27. Color range                              : Limited
    / E0 j! C* {! ?% v0 Q: G2 d! s5 d
  28. Matrix coefficients                      : BT.709  U" s! B0 z4 ~# K& S& i5 c
  29. Audio4 P4 d( C3 r1 z* A5 M
  30. ID                                       : 2
    & W$ {5 U- D$ a2 \8 o; W
  31. Format                                   : AC-3
    ; |( \% u0 }  v' {: `- q; B9 H
  32. Format/Info                              : Audio Coding 3, s- c" A" b+ O7 s
  33. Commercial name                          : Dolby Digital/ I: ^3 S! h8 t% M8 p
  34. Codec ID                                 : A_AC3- r/ }& t' p# g  Z8 ?3 D, R, \% h; w
  35. Duration                                 : 1 h 33 min% {6 G; n% c. v  @
  36. Bit rate mode                            : Constant
    5 `! g  h" I3 i4 V* g, `
  37. Bit rate                                 : 448 kb/s
    . n8 e6 k& C* k5 \0 F  w
  38. Channel(s)                               : 6 channels
    / L- ?; I. N8 m
  39. Channel layout                           : L R C LFE Ls Rs
    " X* @: c' B9 t; }, }; S$ a$ `+ N
  40. Sampling rate                            : 48.0 kHz
    2 p# J2 m; v/ E" X5 e* W0 P
  41. Frame rate                               : 31.250 FPS (1536 SPF)* q! T! ]! ]" f* W- h) w. v+ o5 n
  42. Bit depth                                : 16 bits& J! f) y7 _. h- T- t# B! ~& j& L. I- h, V
  43. Compression mode                         : Lossy
    0 D# E4 ~2 j. {" ^0 D! x
  44. Stream size                              : 298 MiB (12%)
    & e2 w9 @3 {; \
  45. Title                                    : English  O0 B5 @$ x8 s8 }' P
  46. Language                                 : English8 {# D) k+ T8 ~
  47. Service kind                             : Complete Main
    * y* D4 f+ a0 c" T+ i* V) F8 o
  48. Default                                  : No
    9 S0 P- [: `" c0 }. e; I
  49. Forced                                   : No! U. e) V0 G$ E' t8 M
  50. Text' x$ q1 x4 a3 e* [9 i' h; v
  51. ID                                       : 3
    , N0 `* ^  w1 w5 X) b
  52. Format                                   : PGS
    5 I$ u/ U, a% O; i4 ~' K
  53. Muxing mode                              : zlib7 T) _: P9 j9 ~& A( p
  54. Codec ID                                 : S_HDMV/PGS9 c' e' [% z6 M6 A# f5 u
  55. Codec ID/Info                            : Picture based subtitle format used on BDs/HD-DVDs
    + E* A' r  Y* K' ?
  56. Duration                                 : 1 h 33 min
    6 W/ l2 j$ P/ l( q$ T
  57. Bit rate                                 : 18.2 kb/s/ t# S9 c, H9 D- F  \% U) ]$ X; a
  58. Count of elements                        : 2445+ l6 M7 K0 z) ?3 f
  59. Stream size                              : 12.1 MiB (0%): Q+ G; s% V: u' V% U+ u3 r
  60. Title                                    : English SDH
    " l3 u9 d8 M; h$ `/ j2 ~6 m
  61. Language                                 : English8 z$ j6 y6 P8 `& n4 y
  62. Default                                  : No
    ( |0 {; {; `7 b8 j
  63. Forced                                   : No* ]9 n; z; y7 K2 u5 Y0 B
  64. Menu
    ; f% x8 G; i- @
  65. 00:00:00.000                             : en:Chapter 01
    " N7 {5 N& B* K" b4 T9 X  D
  66. 00:05:43.844                             : en:Chapter 025 ^* U  v3 G- t: q
  67. 00:10:33.675                             : en:Chapter 03, X# D& ]: j  v. y% @8 P2 A6 q
  68. 00:17:48.818                             : en:Chapter 04
    8 c8 Q' g# m0 |4 ]8 Q# J2 Y
  69. 00:23:46.842                             : en:Chapter 05
    * ?) r  f$ t- ]( L1 \6 [
  70. 00:30:08.390                             : en:Chapter 064 l& j& H  [6 V6 k, e% z
  71. 00:35:50.857                             : en:Chapter 07
    ( j7 \# C3 ?8 l! d6 W, V9 U
  72. 00:42:34.677                             : en:Chapter 08$ y# Z& d  L6 q  l9 c  q' ]
  73. 00:49:33.929                             : en:Chapter 09
    " g5 H/ Y" v* u
  74. 00:55:20.484                             : en:Chapter 10
    & E7 Z0 Z9 y" s. A& X) F$ F# v7 c
  75. 01:00:41.721                             : en:Chapter 111 x8 _$ U" ]) G8 U- v  E
  76. 01:06:40.914                             : en:Chapter 12
    5 y; O, U4 p+ N: ~" p
  77. 01:11:17.273                             : en:Chapter 136 t; B3 h' a/ U# N  }
  78. 01:15:17.263                             : en:Chapter 14
    1 n  E; ]* m8 [; b6 j/ b) e
  79. 01:19:13.165                             : en:Chapter 15
    9 P- h8 w/ v5 i
  80. 01:24:17.344                             : en:Chapter 16
复制代码
2 H6 \  @, V& T5 c

$ H( w; j& ~% L3 h+ p9 G5 S4 b
7 g" F, P& V9 i  n% a

9 Q: V$ v- t) G( n6 q& K/ }6 j; g$ o0 R3 V5 {6 {5 n; d$ k) q! q7 ?1 }0 _
( r  g$ l1 [3 y" x
回复

使用道具 举报

级别:群众演员 Lv.3

注册时间
2020-2-10
最后登录
2020-8-6
听众
5
收听
0
主题
0
蓝光币
56 枚
贡献
0 点
发表于 昨天 16:49 | 显示全部楼层
楼主发贴辛苦了,谢谢楼主分享!我觉得中国高清电影网是注册对了!
回复

使用道具 举报

懒得打字嘛,点击右侧快捷回复 【右侧内容,后台自定义】
您需要登录后才可以回帖 登录 | 立即注册

本版积分规则

Archiver|手机版|小黑屋| 中国高清网 ( ICP备17007870号-2 ) |网站地图 

GMT+8, 2020-8-7 16:54 , Processed in 0.180267 second(s), 39 queries .

Powered by HDchina X3.4

Copyright 2017-2019©HDchina.All right reserved

返回顶部 联系我们