查看: 31|回复: 1

[动作片] 深海狂鲨3 Deep.Blue.Sea.3.2020.720p.BluRay.x264-YOL0W 3.35GB

[复制链接]

 成长值: 6410

级别:资源管理组

注册时间
2017-10-20
最后登录
2020-8-7
听众
1
收听
0
主题
100960
蓝光币
179192 枚
贡献
21715 点
发表于 5 天前 | 显示全部楼层 |阅读模式
  R& B  g# f; N; E, G  v$ z
. ]% U/ L" i) ?+ v) ?: [! k
# h% n% S* N$ g0 R
, ~2 U2 C: `6 g' X5 P: g- D0 J$ j
译  名 深海狂鲨33 k6 r# T8 y8 s
片  名 Deep Blue Sea 3
0 J, z* I- `, A& P3 u7 V1 a) Z- h年  代 2020
3 u* Y. T0 Q2 h产  地 美国
: U  M' I4 v5 K2 {1 g1 |类  别 行动 / 科幻 / 可骇
1 e/ K6 [1 z* r% {语  言 英语7 g- y3 h' y0 }1 ~' O; i' z6 v4 f
上映日期 2020-07-28(美国)8 Q+ R6 q) g' v1 O0 U
IMDb链接  https://www.imdb.com/title/tt11946300+ I& m  n0 r) b
豆瓣评分 0/10 from 0 users
  S4 `0 w9 B: M" b豆瓣链接 https://movie.douban.com/subject/35101514/4 f  o; _! A; [
片  长 99分钟  A& q! ]- W/ K2 G
导  演 约翰·波罗 John Pogue
. h3 z5 T+ i, X9 n+ Q, E) F3 u编  剧 德克·布莱克曼 Dirk Blackman
; t1 ~  X! O/ Y" _2 [6 }' \: Q主  演 纳撒尼尔·布佐尼克 Nathaniel Buzolic
; e0 ^! m* @! o2 O6 O& g; z( ~$ W( p       Emerson Brooks
7 D: w0 l# T% [" N1 \       布伦·福斯特 Bren Foster
* [, ~( V- ?2 @7 ^8 o       苍丽娜 Reina Aoi
3 I" W3 B( r$ p* Z- M6 b       Alex Bhat
: q9 C5 ]+ @' Z1 {2 P" {       Siya Mayola/ `! M% R5 m' H6 [
       Ernest St Claire# s% e" \; d( h* E( G5 k/ u/ j* Q
       DeVille Vannik
( K5 D* T5 G0 w& u# X       Brashaad Mayweather
" t" q2 N: P# @" q; K% G  n       坦妮娅·雷蒙德 Tania Raymonde
( f4 R0 I! e! B/ ^* X) J+ \       欧内斯特·圣·克莱尔 Ernest St.Clair
  {9 _8 N, f  G' ^0 v& B
4 C; }' I: j% S# Z, W" A6 k- F6 q" k) _: E3 O
标  签 2020 | 美国 | 线上# X( l! B- b% D. b

7 b4 E/ ?. c) h4 f9 ?' D简  介  
; S* y# ?2 e) Y3 M+ W
7 |9 k+ O$ f0 X0 m5 {5 V  Dr. Emma Collins and her team are spending their third summer on the island of Little Happy studying the effect of climate change on the great white sharks who come to the nearby nursery every year to give birth. Along with the last two inhabitants of this former fishing village, their peaceful life is disrupted when a "scientific" team led by her ex-boyfriend and marine biologist Richard show up looking for three bull sharks who we soon learn aren't just any bull sharks., W! z9 C$ n8 T: J! I8 E$ X

$ Q7 @# R' Q( x0 i; ~0 [! A  T  谷歌为您翻译:: E8 j& Z- F( T# \6 ]8 A
  艾玛·柯林斯(Emma Collins)博士和她的团队正在他们的第三个炎天度太小欢畅岛(Little Happy),研讨天气变化对每年来四周托儿所产卵的大白鲨的影响。与这个前渔村的最初两个居民一路,当由她的前男友和陆地生物学家理查德(Richard)带领的“科学”团队出现在寻觅三只公牛鲨鱼时,他们的和生平活遭到了破坏。鲨鱼。
: o# K7 C$ o+ U
! g: a0 y* g# z; d7 Q( h$ P0 V  腾讯为您翻译:
" f7 A7 @: J6 n5 w5 _; M  艾玛·柯林斯博士和她的团队正在小欢乐岛度过他们的第三个炎天,研讨天气变化对大白鲨的影响,这些大白鲨每年城市来到四周的托儿所产子。当她的前男友、陆地生物学家理查德率领的“科学”团队现身寻觅三条牛鲨时,他们和这个昔日渔村的最初两位居民的安静生活被打乱了。我们很快就晓得,这三条牛鲨并不是普通的牛鲨。) b3 @1 Q0 A- G* Q" |4 p# \# R
& D! u8 k& {& m% v1 M

( f2 ]$ I. _, G1 {) L" |/ Z& k
  1. Video
    % y# M- |; j& G7 c: L6 n( B' Q9 Y3 X4 U
  2. ID                                       : 1
    . ~4 m, G8 o" u" h) c
  3. Format                                   : AVC
    ( C, i$ @8 H4 ^9 X6 D$ T
  4. Format/Info                              : Advanced Video Codec9 u. r  }* p5 A% I
  5. Format profile                           : High@L4.1
    * ^5 b# _9 W( p  {5 H
  6. Format settings                          : CABAC / 8 Ref Frames
    3 I, Z* ]8 ?4 R5 M/ v+ y
  7. Format settings, CABAC                   : Yes' @' u8 F5 h+ D
  8. Format settings, Reference frames        : 8 frames- R( x& B$ N0 a. w
  9. Codec ID                                 : V_MPEG4/ISO/AVC( @) `( w: p8 G% T% K  I  H0 f
  10. Duration                                 : 1 h 40 min- R' t* I) ?" E, V. Z% V$ Y
  11. Bit rate                                 : 4 077 kb/s
    5 g( H* K( {0 M
  12. Width                                    : 1 280 pixels
    ' Y" `& I0 Y) }( f% p3 u
  13. Height                                   : 534 pixels
    : o) ^; V. X# y
  14. Display aspect ratio                     : 2.40:1) O# e4 o' Y, |# Z+ R$ r7 V
  15. Frame rate mode                          : Constant" _% J( |2 B# ?4 P9 f# F* H
  16. Frame rate                               : 23.976 (24000/1001/45378) FPS0 Z% z# F6 D$ H3 j( F1 V
  17. Color space                              : YUV
    0 w* \! o& n3 t# Q
  18. Chroma subsampling                       : 4:2:00 r' ?1 T/ ]' j$ Y8 V
  19. Bit depth                                : 8 bits
    . P/ {% A% H% }- }2 z
  20. Scan type                                : Progressive
    & \$ `$ f, E# t8 l0 x- O' J
  21. Bits/(Pixel*Frame)                       : 0.249
    5 |. u7 |8 a; {- l2 W. {* @6 y
  22. Stream size                              : 2.85 GiB (85%)
    : \6 K# W# J- v5 ^% h7 m/ T
  23. Writing library                          : x264 core 161 r3018 db0d417
    6 u# Y4 P6 H( o" G( f
  24. Encoding settings                        : cabac=1 / ref=8 / deblock=1:-3:-3 / analyse=0x3:0x133 / me=umh / subme=9 / psy=1 / psy_rd=1.00:0.00 / mixed_ref=1 / me_range=24 / chroma_me=1 / trellis=2 / 8x8dct=1 / cqm=0 / deadzone=21,11 / fast_pskip=0 / chroma_qp_offset=-2 / threads=17 / lookahead_threads=1 / sliced_threads=0 / nr=0 / decimate=1 / interlaced=0 / bluray_compat=0 / constrained_intra=0 / bframes=3 / b_pyramid=2 / b_adapt=2 / b_bias=0 / direct=3 / weightb=1 / open_gop=0 / weightp=2 / keyint=250 / keyint_min=23 / scenecut=40 / intra_refresh=0 / rc=crf / mbtree=0 / crf=19.5 / qcomp=0.60 / qpmin=0 / qpmax=69 / qpstep=4 / ip_ratio=1.40 / pb_ratio=1.30 / aq=3:0.85& ^! N3 s# v, j* Z6 x
  25. Default                                  : Yes
    ( S% [$ I0 L1 e& v8 ^
  26. Forced                                   : No
    & C, ]. w+ G6 c. A
  27. Color range                              : Limited
    5 f9 ~& b0 s8 }/ x- ?' z; s! @* p' i
  28. Matrix coefficients                      : BT.709
    1 X' S) n$ y% e0 f" x) D' f$ f2 a6 A( W
  29. Audio6 O% }' u! m* W& z8 v, r
  30. ID                                       : 2
    : V: a5 |0 k8 p
  31. Format                                   : AC-3
    6 F2 ~$ s3 S8 F, {. [1 r
  32. Format/Info                              : Audio Coding 3! u( O- F, I8 t2 H1 o
  33. Commercial name                          : Dolby Digital
    / g0 }+ Q6 H( t8 K3 V9 g
  34. Codec ID                                 : A_AC33 v! N; O% |- g! F& H- N, T
  35. Duration                                 : 1 h 40 min
    # r1 q0 [" t$ q8 I
  36. Bit rate mode                            : Constant; S. ^3 Z4 e2 \8 Y7 [* z9 c
  37. Bit rate                                 : 640 kb/s
    ( p9 A/ p+ ?9 v' y& z3 D
  38. Channel(s)                               : 6 channels
    . \9 ^  P1 B! G  _& O
  39. Channel layout                           : L R C LFE Ls Rs  f+ _, _; m- T+ E- ^
  40. Sampling rate                            : 48.0 kHz" K6 Y. u; }1 I- Q' Y9 y  q
  41. Frame rate                               : 31.250 FPS (1536 SPF)- t' N' Z2 ^7 q9 g& `6 z4 M2 O
  42. Bit depth                                : 16 bits
    . S/ J; b- @3 g; U" n
  43. Compression mode                         : Lossy
    1 G6 _0 {2 e" l+ J! ~1 U5 z
  44. Stream size                              : 459 MiB (13%)
    8 a" d% O9 N" ?3 [# t7 m
  45. Title                                    : English7 q  h' M" p# h6 |( |& c3 Z
  46. Language                                 : English
    - w+ B5 m, d; u8 B' i# y6 h! X
  47. Service kind                             : Complete Main( H* G! U  l1 h5 }+ c9 e9 I" ?
  48. Default                                  : Yes
    * E  v! T+ T) l! d% J* G7 {
  49. Forced                                   : No4 I; q- P, N, h0 y) u
  50. Text #13 L4 D+ ?  {( }, L& ?
  51. ID                                       : 3
    / G# T' |: Z- k) h* E
  52. Format                                   : PGS, h( G$ g+ y& d) m  d: @
  53. Muxing mode                              : zlib9 b$ m! H2 O4 s" y# c
  54. Codec ID                                 : S_HDMV/PGS0 A: z+ \8 n7 O5 A7 w% Q/ G
  55. Codec ID/Info                            : Picture based subtitle format used on BDs/HD-DVDs% V. ?1 ?+ p' c( w8 g& A2 G
  56. Duration                                 : 1 h 37 min1 r0 b) h  C2 g# q/ j: ?* R1 [
  57. Bit rate                                 : 32.0 kb/s
    % x( S* f" ?, Q2 ]1 x" b
  58. Count of elements                        : 2460
    ) V1 o. G& }5 e1 l
  59. Stream size                              : 22.3 MiB (1%)6 y: P: s. \% K' N7 `
  60. Language                                 : English
    : g( Y0 D8 l3 b/ b9 i4 M$ L
  61. Default                                  : No/ N  p% w$ p; x' \7 a2 a! x
  62. Forced                                   : No; Z7 F3 S4 G4 n- L
  63. Text #2
    , h( q" G* A4 i  X5 f6 P
  64. ID                                       : 4
    6 W4 r5 g4 r. U. w  r: U! ]
  65. Format                                   : PGS5 Z. D* N. p& Z$ ]% ]" @
  66. Muxing mode                              : zlib5 T2 w! ~( S% [
  67. Codec ID                                 : S_HDMV/PGS' V7 D* G, z( v8 m. c
  68. Codec ID/Info                            : Picture based subtitle format used on BDs/HD-DVDs
    , Z: a( z3 e. U( |- E
  69. Duration                                 : 1 h 38 min" y5 Y! V! T2 {! r5 T: ]$ V% j
  70. Bit rate                                 : 26.2 kb/s. Y% J4 _& w, E4 `+ b
  71. Count of elements                        : 2088
    " ^- c) p# J, ~
  72. Stream size                              : 18.4 MiB (1%)4 }$ L: A" U! Y+ I( ^* V
  73. Language                                 : French
    . [5 [. @. N' `8 }. \$ X6 @4 k: A
  74. Default                                  : No4 e& e1 g0 t: @% ^/ h, A
  75. Forced                                   : No
    - n7 f, e& t3 s% ~
  76. Text #3! E, C+ |  Z$ g% N5 h% R, ^; N6 y
  77. ID                                       : 50 E3 w0 ~* [, ^6 ~4 t/ p0 y/ q. O
  78. Format                                   : PGS
    " B7 |# X) F- o. U% i4 c
  79. Muxing mode                              : zlib
    ! V& @0 |. u/ s5 g% r4 B: t% _+ o
  80. Codec ID                                 : S_HDMV/PGS5 v/ T0 z" e$ A2 J4 j5 ~9 v% y
  81. Codec ID/Info                            : Picture based subtitle format used on BDs/HD-DVDs$ n5 I; R" `  h$ Q  O' S) B
  82. Duration                                 : 1 h 37 min
    7 ?. ?. `/ e: h7 J
  83. Bit rate                                 : 34.1 kb/s( n; ]: F6 K' y, }4 f8 q
  84. Count of elements                        : 24607 I1 Z7 _( N& A3 i9 \
  85. Stream size                              : 23.8 MiB (1%)% s1 n" J* e$ s" S3 n$ z
  86. Language                                 : German7 V* |; Y; \  n& U* W
  87. Default                                  : No! O! y( c4 h& c) ~. Y
  88. Forced                                   : No$ T/ c) Q$ q6 A
  89. Text #40 ^. Q7 b. R  M4 L/ E
  90. ID                                       : 6: Z# \( `6 O. L( `5 R: z
  91. Format                                   : PGS& B9 i5 i$ R4 y" j$ |( m5 ~) k. j
  92. Muxing mode                              : zlib
    . j# ?- O' O$ U! m
  93. Codec ID                                 : S_HDMV/PGS
      j" ]. h! B7 A
  94. Codec ID/Info                            : Picture based subtitle format used on BDs/HD-DVDs" W3 ^) n6 E) @, P; N. I  z3 x
  95. Duration                                 : 1 h 38 min
    + p/ t+ @' i. a; a2 `! @
  96. Bit rate                                 : 28.2 kb/s
    , b+ C' k+ ]- d* K  Y9 H
  97. Count of elements                        : 20909 C" m+ @5 A1 b- e3 ]
  98. Stream size                              : 19.9 MiB (1%)8 }7 ]) s* s1 K: ?9 y3 ^5 b
  99. Language                                 : Spanish+ `( B9 B, u/ L2 r$ d
  100. Default                                  : No$ u$ l: M! B- r, y5 ?5 P
  101. Forced                                   : No' _# b4 l) D6 a8 U" o% X, s
  102. Text #52 a4 C. K' P* l* D' s; `
  103. ID                                       : 73 r2 h8 |  `. |0 y3 T' V# B
  104. Format                                   : PGS
    . |: c; f7 _/ F# @) ]
  105. Muxing mode                              : zlib0 [4 e% |$ Q* g' x* F% [+ X/ N
  106. Codec ID                                 : S_HDMV/PGS! O* g# ]. k) F7 B
  107. Codec ID/Info                            : Picture based subtitle format used on BDs/HD-DVDs
    * d8 p3 \- J# N( V
  108. Duration                                 : 1 h 38 min
    0 T- |% l% p- p) h
  109. Bit rate                                 : 24.2 kb/s% T5 M% b) b& K$ j$ p6 A
  110. Count of elements                        : 2068& _/ m( o7 j5 o( @+ h+ J1 J3 V
  111. Stream size                              : 17.0 MiB (0%)7 T6 b: i" h% P) h( v+ z) @- s
  112. Language                                 : Danish& S( H0 i/ H2 L; _* P3 E
  113. Default                                  : No+ e" L/ x9 K" W3 [1 v0 p
  114. Forced                                   : No
    " S; _/ _, Y/ ~, d
  115. Text #6" [* M' F) j  F* e* R# s' K
  116. ID                                       : 8
    ) o( v7 s7 L: s) }
  117. Format                                   : PGS. ~) q8 u" |$ c+ P4 E* E
  118. Muxing mode                              : zlib
    5 X. p6 M7 \0 [) L8 I5 i: `3 t) J
  119. Codec ID                                 : S_HDMV/PGS
    2 u& O; A) s3 i2 \9 K2 u
  120. Codec ID/Info                            : Picture based subtitle format used on BDs/HD-DVDs
    : B5 H! y# a& m
  121. Duration                                 : 1 h 38 min- w( a( H2 `0 y7 P
  122. Bit rate                                 : 26.8 kb/s
    2 d& b9 P# o7 u6 `9 B* D0 u
  123. Count of elements                        : 20760 |* O9 R4 d& X/ u+ d/ q7 o
  124. Stream size                              : 18.8 MiB (1%)
    & u' U+ v$ p4 T0 m8 s
  125. Language                                 : Finnish
    # \5 _: K9 x  s) F5 ?8 \
  126. Default                                  : No
    3 E6 u, V2 w& h- h
  127. Forced                                   : No) G/ ]$ j5 W! F3 \
  128. Text #7
    + H. y" x$ B( q- H
  129. ID                                       : 9
    : ^9 C' I1 M; O# _2 G3 r
  130. Format                                   : PGS! t  I: B# b3 A$ h  G% }
  131. Muxing mode                              : zlib
    + R4 o4 B; E  `! G3 N- }7 X2 e
  132. Codec ID                                 : S_HDMV/PGS
    + O- v( v6 I6 S
  133. Codec ID/Info                            : Picture based subtitle format used on BDs/HD-DVDs
    - h; F# p- D0 r
  134. Duration                                 : 1 h 38 min7 S' z5 N* R5 Q) a# T
  135. Bit rate                                 : 25.2 kb/s, w' j! M8 a& Y6 T1 ?& M% C; O" R
  136. Count of elements                        : 2086
    ! n: Z5 p$ Z9 J% h; w3 Z7 J  @
  137. Stream size                              : 17.7 MiB (1%)
    ; I6 w7 }5 ^% A, B3 x( T# k
  138. Language                                 : Norwegian$ |; E1 v; H$ D6 q- N& S
  139. Default                                  : No* D9 d2 `: @* [; ~8 l
  140. Forced                                   : No
    ' s1 a% q5 ?  I: |( O# B
  141. Text #8. K' d$ r# G" V! K: Z- ?
  142. ID                                       : 10% {6 R+ V2 K/ ^% K: P$ l. t
  143. Format                                   : PGS4 ^2 n- x. J4 r" r+ T
  144. Muxing mode                              : zlib
    $ Z6 O2 S; t/ D% G9 _) _! @
  145. Codec ID                                 : S_HDMV/PGS
    ) g8 \# N& J; T: b/ f
  146. Codec ID/Info                            : Picture based subtitle format used on BDs/HD-DVDs6 c2 q* x; w. C+ ]' a1 D
  147. Duration                                 : 1 h 38 min) M1 b# w. Q+ \
  148. Bit rate                                 : 28.0 kb/s9 w- _6 X5 v# \  _; V0 c$ {. k
  149. Count of elements                        : 2044+ n4 X# v% D; g" G9 D
  150. Stream size                              : 19.7 MiB (1%)
    . m# B" `* Y! F( n
  151. Language                                 : Swedish
    / W- a, O2 p5 V! `' b* h/ T
  152. Default                                  : No( N3 G) M+ y  d/ G
  153. Forced                                   : No
    ! z, ^) n7 l# K2 j- r5 [* v
  154. Text #9: t& t- y3 J! z
  155. ID                                       : 11
    + b9 t( w  E/ U  S6 ?: M5 Z
  156. Format                                   : PGS+ h" L, ]6 ^1 _8 K7 d7 f
  157. Muxing mode                              : zlib  \: M6 g0 M2 f; F; l
  158. Codec ID                                 : S_HDMV/PGS; J2 r' z4 p: ^, ~# m/ U, c4 |
  159. Codec ID/Info                            : Picture based subtitle format used on BDs/HD-DVDs6 W+ j7 |4 V4 T1 o
  160. Duration                                 : 57 min 41 s
    % S; y6 G4 q$ ]: n$ {1 a' }) U
  161. Bit rate                                 : 107 b/s
    ( A" m* x" A  H# ]& U9 d9 L7 W" p$ W5 @4 |
  162. Count of elements                        : 4
    # ~$ R& R6 ^, b! w2 o0 j! S
  163. Stream size                              : 45.6 KiB (0%)4 B6 ]( y/ Q; J) C7 w
  164. Language                                 : French
    % C! H3 P  @; g1 [0 H( x0 R% P
  165. Default                                  : No
    $ p; u# }. V$ Q3 d, q- N
  166. Forced                                   : No3 d! D( z: z" q; R/ u/ n
  167. Text #10- f; G# {" E% v; ], k5 d( A
  168. ID                                       : 12
    ) ]' ^. u  T, G" `3 W
  169. Format                                   : PGS
    3 E; T- }) V2 E% ^8 f) v
  170. Muxing mode                              : zlib
    - g, }6 a" i' K9 I3 @9 H9 u3 m% r
  171. Codec ID                                 : S_HDMV/PGS6 L! f0 J1 \/ C: Z: I* S
  172. Codec ID/Info                            : Picture based subtitle format used on BDs/HD-DVDs
    + i" a7 ]$ k+ y
  173. Duration                                 : 57 min 41 s
    + t3 P. b# ?1 f3 {1 n
  174. Bit rate                                 : 100 b/s
    9 _( g" R! G4 C# I, H9 D. x0 l
  175. Count of elements                        : 4
    ! R+ W' y' @4 h- q
  176. Stream size                              : 42.3 KiB (0%)
    % R. ?- D! S7 o, ~. E
  177. Language                                 : Spanish
    5 @- Q6 @- r( _8 @  _0 j9 \# r
  178. Default                                  : No& U6 U3 x- w5 F& r- ?
  179. Forced                                   : No  G+ C7 {' F/ v1 m8 Q
  180. Text #11
    & f+ Z; w1 g# N1 B3 T6 u' ]
  181. ID                                       : 13% \+ k5 m$ k- i
  182. Format                                   : PGS
    ! W. Y8 z3 g4 p2 F
  183. Muxing mode                              : zlib) H3 Z3 P, r4 l" u1 i( j* o
  184. Codec ID                                 : S_HDMV/PGS
    5 ]- `3 P0 K+ m, O' U
  185. Codec ID/Info                            : Picture based subtitle format used on BDs/HD-DVDs
    ) i4 A4 P9 a: ^  F7 r
  186. Duration                                 : 2 s 85 ms$ s& v+ B3 N! @; g  e
  187. Bit rate                                 : 56.7 kb/s
    ) v: ?8 r: A8 r
  188. Count of elements                        : 2
      h6 ?" g' q4 M3 J  A- u6 X
  189. Stream size                              : 14.4 KiB (0%)3 R& V8 H  f( ]+ L
  190. Language                                 : German
    " `- `) N6 i7 R4 l# z# E! e; A
  191. Default                                  : No7 ~# K' Q- K" n& p# z
  192. Forced                                   : No+ {: a) J) l2 h4 U* ~! q# h
  193. Menu4 D; n+ z" `* T
  194. 00:00:00.000                             : en:Chapter 01
    1 M: `- m- A* z9 q, p: T$ {) `
  195. 00:09:50.006                             : en:Chapter 02$ {: w6 ]" o! U7 T% s+ u' _
  196. 00:19:15.154                             : en:Chapter 03
    ) O2 a( _. s8 l+ d; h& H3 }
  197. 00:28:50.270                             : en:Chapter 04
    9 H4 n1 j/ y" [% i7 G8 J3 r
  198. 00:38:06.034                             : en:Chapter 05+ J+ q7 N  H) i- e8 P; \: I8 O) O; g
  199. 00:45:09.290                             : en:Chapter 068 G* ~5 U8 [; |& s' p7 ]
  200. 00:54:28.891                             : en:Chapter 07
    : u" k' z! x* p2 w* O+ A
  201. 01:04:14.142                             : en:Chapter 082 O0 j& @* Q+ _. `0 [. }, r
  202. 01:14:12.406                             : en:Chapter 09
    # f( `, P2 ^' L0 _0 h
  203. 01:23:10.819                             : en:Chapter 10# @$ \. Y% m$ e7 @6 L
  204. 01:32:48.229                             : en:Chapter 11
复制代码
' i2 L! Y( |0 _
. T6 F: b  }! o
% R9 L6 e! E# G8 E: K9 |

) V" ~- \. K; F3 C
- p, V9 W+ Z% K0 x" s& `
5 S- u- f0 H9 m/ ], `3 g
# ?  w( Z: R& u  i+ L- ~* A; q1 S
回复

使用道具 举报

级别:专业龙套 Lv.4

注册时间
2019-12-20
最后登录
2020-8-6
听众
4
收听
0
主题
0
蓝光币
203 枚
贡献
0 点
QQ
发表于 5 天前 | 显示全部楼层
楼主发贴辛苦了,谢谢楼主分享!我觉得中国高清电影网是注册对了!
回复

使用道具 举报

懒得打字嘛,点击右侧快捷回复 【右侧内容,后台自定义】
您需要登录后才可以回帖 登录 | 立即注册

本版积分规则

Archiver|手机版|小黑屋| 中国高清网 ( ICP备17007870号-2 ) |网站地图 

GMT+8, 2020-8-7 16:49 , Processed in 0.200832 second(s), 40 queries .

Powered by HDchina X3.4

Copyright 2017-2019©HDchina.All right reserved

返回顶部 联系我们