查看: 22|回复: 0

[爱情片] 星之声/星尘物语 Voices.of.a.Distant.Star.2002.720p.BluRay.x264-GHOULS 893.68MB

[复制链接]

 成长值: 6410

级别:资源管理组

注册时间
2017-10-20
最后登录
2020-8-7
听众
1
收听
0
主题
100960
蓝光币
179212 枚
贡献
21715 点
发表于 5 天前 | 显示全部楼层 |阅读模式
译  名 星之声 / 星尘物语 / Voices of a Distant Star9 b; \2 h& f, e5 g
片  名 星之声 ほしのこえ
$ [" C  W, U7 ~3 i6 U. F年  代 2002
' S* `3 ^( I: K1 F, P国  家 日本- `+ W4 \8 Q7 |' G& d: {
类  别 恋爱 / 科幻 / 动画 / 短片9 s/ Q' C' Q2 p: t# G% Y8 }
语  言 日语 / 英语
" \# {# E+ l8 r/ w' D/ H上映日期 2002-02-02(日本)7 F/ j/ b3 G% s5 [) u% s
IMDb评分  7.3/10 from 7,595 users) k( `, w+ I; g) y
IMDb链接  http://www.imdb.com/title/tt0370754/- [( h4 L8 y6 X: U+ ]- S7 k- T" V5 @
豆瓣评分 8.2/10 from 32759 users4 F' h# O7 P3 J$ V" y  x
豆瓣链接 https://movie.douban.com/subject/1463872/3 E% ~; z+ e# b4 V; c% a' t
片  长 25 分钟' }. L6 G( l# x5 C
导  演 新海诚/ p3 V( s- \. h6 d' g6 [0 B0 v
主  演 Mika Shinohara
# n5 s$ O; Y3 B# l      新海诚
, t% C! R+ E1 B3 d      武藤寿美. U0 R( E0 q0 w0 I) h5 b
      铃木千寻
% w, s5 i7 [: `+ s3 N5 y      唐娜·伯克
& _$ q7 f; D  L, O0 X0 m; Y  M( ^  |% m
简  介 
( w% x$ Y; T/ m2 G- l
; L$ |' {3 j) a3 l: A: S, {  故事始于2046年,为了追捕侵袭火星的外星人多鲁米斯星人,宇宙摸索舰Lysithea号在各地挑选先发职员,初中生美加子(武藤寿美配)也成为一位宇宙员。起头了辗转于火星、太空基地、木星、冥王星等各地的练习。4 y+ ?1 N& Q" Q, F# N3 j6 c6 u# I* K5 L
  美加子分开地球后,她的同班同学小昇(铃木千寻配)仍然能收到来自宇 宙的问候——美加子经常发来短信奉告现状,只是随着间隔的扩大,短信投递地球的时候就会越来越长。“有一天一定能再碰头吧!”对方都这么想着。可是,美加子终究泥牛入海了。
$ d6 q. J, H& `$ g( r7 j  8年后,小昇在报纸上读到了8年前宇宙军和多鲁米斯星人恶战且几近无人生还的消息。此时手机忽然响了:“24岁的小昇你好,我是15岁的美加子哦!……”手机屏幕上映出这样的话来。
% z4 {% L! ?: ?5 \* \' G0 X7 P" q  ]* Q0 }2 A! z7 E
  1. Video
    / I2 R' v% {) r  w5 ~- [. D1 L
  2. ID                                       : 19 h# d. \- f9 B% l* o
  3. Format                                   : AVC
    5 p/ H' v% W$ r5 o  M( U+ K) ~
  4. Format/Info                              : Advanced Video Codec( \% M9 O4 U: @1 i5 I& _# m
  5. Format profile                           : High@L4.1
    - W0 F9 H( u* A( }7 g
  6. Format settings                          : CABAC / 12 Ref Frames
    - T/ r0 N7 A3 z3 j# Q9 T. G& C0 l) ]$ s
  7. Format settings, CABAC                   : Yes' m9 f- E4 m! n0 m
  8. Format settings, ReFrames                : 12 frames  {% ?- z) F" Y8 U4 ~/ y
  9. Codec ID                                 : V_MPEG4/ISO/AVC7 K5 z" ?) \- x: |: p- E
  10. Duration                                 : 25 min 0 s8 s( w" z) B) a4 v5 H: V( f
  11. Bit rate                                 : 3 022 kb/s
    7 U! g3 Z% m5 i& o8 @
  12. Width                                    : 960 pixels% N3 B& N6 X- ^, a. g0 m3 y
  13. Height                                   : 720 pixels
    $ v: g7 U$ }, {- k" p  F
  14. Display aspect ratio                     : 4:3
    + I' w8 C" ~/ w( t
  15. Frame rate mode                          : Constant# ^- Y" z( D: Y# m& g4 [. {
  16. Frame rate                               : 29.970 (30000/1001/45378) FPS8 f# h9 u# k  C! q
  17. Color space                              : YUV
    ( J2 u! i- y, f! N3 g' M6 L
  18. Chroma subsampling                       : 4:2:08 W1 I/ M% L( {$ k5 X) T
  19. Bit depth                                : 8 bits# n' q* U+ y# i! O* h% r
  20. Scan type                                : Progressive0 t; t8 K0 z4 K% |
  21. Bits/(Pixel*Frame)                       : 0.146" }# O9 P0 V  ~, p' A
  22. Stream size                              : 541 MiB (61%)
    1 S' i) N8 M- w1 m# [, o
  23. Writing library                          : x264 core 157 r2969 d4099dd, k/ b6 r0 _9 a. q2 Z% c; |3 @
  24. Encoding settings                        : cabac=1 / ref=12 / deblock=1:2:1 / analyse=0x3:0x133 / me=umh / subme=9 / psy=1 / psy_rd=1.00:0.00 / mixed_ref=1 / me_range=24 / chroma_me=1 / trellis=1 / 8x8dct=1 / cqm=0 / deadzone=21,11 / fast_pskip=0 / chroma_qp_offset=-2 / threads=22 / lookahead_threads=3 / sliced_threads=0 / nr=0 / decimate=1 / interlaced=0 / bluray_compat=0 / constrained_intra=0 / bframes=8 / b_pyramid=2 / b_adapt=2 / b_bias=0 / direct=3 / weightb=1 / open_gop=0 / weightp=2 / keyint=250 / keyint_min=25 / scenecut=40 / intra_refresh=0 / rc_lookahead=60 / rc=2pass / mbtree=1 / bitrate=3022 / ratetol=1.0 / qcomp=0.60 / qpmin=0 / qpmax=69 / qpstep=4 / cplxblur=20.0 / qblur=0.5 / vbv_maxrate=62500 / vbv_bufsize=78125 / nal_hrd=none / filler=0 / ip_ratio=1.40 / aq=1:1.00
    5 m& o2 r2 E4 j6 w  a6 J/ k/ w5 N! J# b
  25. Default                                  : Yes/ r* {- |) ]! y& S
  26. Forced                                   : No! x# Q+ c- O6 d9 B: T5 X* |
  27. Audio #1$ s$ ?  w4 F. c6 V
  28. ID                                       : 2& L& r) a! d$ J# _: h: N
  29. Format                                   : AC-3' m+ u2 C9 F! D. K/ q! u
  30. Format/Info                              : Audio Coding 3/ a0 d/ X' q. h# [9 ]: g; Q3 ~+ E0 o
  31. Commercial name                          : Dolby Digital
    2 {6 I  k2 n: t
  32. Codec ID                                 : A_AC3- a1 r! f0 E% W* e
  33. Duration                                 : 25 min 3 s
    & \/ `+ P) k! N9 {3 k, n5 x
  34. Bit rate mode                            : Constant+ F. ]6 b3 v- W& y+ d' l8 ?, b  W- ^$ M
  35. Bit rate                                 : 448 kb/s8 h0 O' `" c- T4 L' [. V/ u
  36. Channel(s)                               : 6 channels& a' I/ l* ]  O. A4 Q( W. Q# c) w
  37. Channel layout                           : L R C LFE Ls Rs  Y. k4 `/ ~* W
  38. Sampling rate                            : 48.0 kHz
    # A/ W9 K- u  i" i2 W  S( ?! D8 y
  39. Frame rate                               : 31.250 FPS (1536 SPF), f2 o; r2 i! R& p( ?- Q$ d. D
  40. Bit depth                                : 16 bits
    + g  E7 u6 n0 v! K5 M+ B
  41. Compression mode                         : Lossy4 x) I: j1 T8 t# d6 K7 g2 W
  42. Stream size                              : 80.3 MiB (9%): Q/ _3 G2 `# b+ B0 ~2 V: L
  43. Language                                 : Japanese# F" h' u# h8 [3 ?/ g
  44. Service kind                             : Complete Main* M1 l5 g4 a; A( d& ~( s, b6 \; r3 r6 M
  45. Default                                  : Yes  K# G$ \" L% E  v( M
  46. Forced                                   : No
    % V. C6 k7 l; d+ B1 p% e
  47. Audio #29 V# F) R7 g& J; B
  48. ID                                       : 38 _* W: ?4 x: S' Q9 X
  49. Format                                   : DTS2 `& l$ W! g6 Q) P, T& j( x' v
  50. Format/Info                              : Digital Theater Systems
    ) ^9 B9 O+ W5 |2 B& a
  51. Codec ID                                 : A_DTS
    # x3 ]) C1 K8 j  O! M
  52. Duration                                 : 25 min 1 s$ T# j" @( P. V4 C( s* [
  53. Bit rate mode                            : Constant$ p) {' T" m0 e" I
  54. Bit rate                                 : 1 509 kb/s
    3 a  g; \1 _+ a; k6 @& `, a2 C3 G& L
  55. Channel(s)                               : 6 channels
    9 y: k. z. b8 A: Z9 j' C
  56. Channel layout                           : C L R Ls Rs LFE& T* n6 n2 m" x
  57. Sampling rate                            : 48.0 kHz
    7 L" d; q, \5 R# r6 D7 j
  58. Frame rate                               : 93.750 FPS (512 SPF)+ q" o* x# O* H" Q! d
  59. Bit depth                                : 24 bits. k+ v  r$ i' b& ]2 m* [5 y
  60. Compression mode                         : Lossy+ T0 D$ [) ]& l5 s4 N5 c" q
  61. Stream size                              : 270 MiB (30%)
    5 x- ~$ T1 M1 S, W- Q
  62. Language                                 : English
    , m; \! c& d1 O% J: F  L2 w
  63. Default                                  : No  e/ `9 G# k5 X# t* e
  64. Forced                                   : No
    ' g# s2 t# j, n/ r- P
  65. Text
    , [( d6 R5 g, f  D5 g- p" a4 j# {
  66. ID                                       : 4
    ( q/ ?! ^5 [8 i* r/ j
  67. Format                                   : UTF-8/ B" D* m& ~" B
  68. Codec ID                                 : S_TEXT/UTF84 Q( D# I8 N7 U
  69. Codec ID/Info                            : UTF-8 Plain Text" P! {4 m' x8 H! c2 P
  70. Duration                                 : 23 min 53 s
    + b' L: @- P8 i
  71. Bit rate                                 : 83 b/s
      j+ J0 H6 |, {' I
  72. Count of elements                        : 290
    1 j, k$ u- \5 F- Q
  73. Stream size                              : 14.6 KiB (0%)
    $ l3 `8 D: t: s$ C0 u
  74. Language                                 : English$ ~7 w, q6 p2 Z, t1 g2 ?" M1 B& K
  75. Default                                  : Yes/ A3 U0 Z( k1 j4 k
  76. Forced                                   : No
    0 a/ f7 L# p2 y% t, i, b
  77. Menu
    - X5 z# q* I* m- E! s' i  h- f' z
  78. 00:00:00.000                             : en:00:00:00.0008 ?) C! A, `( R1 Z8 Q2 g
  79. 00:04:28.535                             : en:00:04:28.5355 Q9 H& N' m; ]$ S/ E: e7 A5 V) k
  80. 00:08:25.038                             : en:00:08:25.038
    % ~  |5 R" b; Q- d* Q2 k. y
  81. 00:12:59.979                             : en:00:12:59.979
    2 M# O3 D! M: L/ A1 k, z! o
  82. 00:16:36.662                             : en:00:16:36.662
    2 s( {1 A! l% V! J) J# [
  83. 00:19:42.982                             : en:00:19:42.982
复制代码

" D/ P) f$ c9 H, e0 P8 k- a7 {" L8 O& C  X8 c2 m9 ?  G& {
! W% @' ~  h- s3 V7 V

- J5 Y' L8 X8 O0 G0 g1 V. b2 ~5 ?) P: e

1 R# M0 j2 ^, s2 t( A9 [( L& W% E/ z$ l! y; S
8 v7 N8 k# `2 _/ C
回复

使用道具 举报

懒得打字嘛,点击右侧快捷回复 【右侧内容,后台自定义】
您需要登录后才可以回帖 登录 | 立即注册

本版积分规则

Archiver|手机版|小黑屋| 中国高清网 ( ICP备17007870号-2 ) |网站地图 

GMT+8, 2020-8-7 18:16 , Processed in 0.153363 second(s), 39 queries .

Powered by HDchina X3.4

Copyright 2017-2019©HDchina.All right reserved

返回顶部 联系我们