查看: 36|回复: 0

[爱情片] 亲爱的艾琳 Come.On.Irene.2018.JAPANESE.720p.BluRay.x264-WiKi 5.45GB

[复制链接]

 成长值: 6410

级别:资源管理组

注册时间
2017-10-20
最后登录
2020-8-7
听众
1
收听
0
主题
100960
蓝光币
179212 枚
贡献
21715 点
发表于 5 天前 | 显示全部楼层 |阅读模式
译  名 亲爱的艾琳 / Come.On.Irene / Itoshi no Irene/ n8 P* `- h0 B% a0 v& k
片  名 亲爱的艾琳 愛しのアイリーン
, j1 F- B& K% c/ a4 ~4 r( l年  代 2018
! j' x0 u0 M2 `& I国  家 日本
  i& x! i1 k- s* j( ?7 ^% D类  别 恋爱. F& A  ?* d; x+ r8 b
语  言 日语$ |, M/ y+ t$ {  [5 U* e8 F! }9 Q
上映日期 2018-09-14(日本)
, M, d7 V( B6 H8 d$ MIMDb评分  7.7/10 from 14 users, V- M  ?  Y* Y' W; J$ b
IMDb链接  http://www.imdb.com/title/tt9015764/
0 F) A( j# h/ U  c3 I6 O2 c; D豆瓣评分 6.6/10 from 98 users
7 m( h' U1 L, I" [豆瓣链接 https://movie.douban.com/subject/30142124/$ q. @6 y. n) \
片  长 137分钟
6 q9 F1 Z! G% l导  演 吉田恵辅
# ]5 C1 Q) R, Z2 A主  演 安田显
. V# c/ Z$ t! `% E/ P8 I$ h      ナッツ?シトイ
  f& e. ]5 L. h! D4 P2 E      河井青叶- T* [& }) s' h
      福士诚治
* f5 i+ c) D2 L8 c- v9 Q5 y6 e      伊势谷友介
9 I- s$ R. k: \2 i& t6 {      田中要次
6 c0 s$ `- ]2 w% }9 P0 g! h      品川彻
8 S8 h, Q: m& F* V* v( S9 \      木野花5 G. i  u" N6 q: b  z
2 L* W5 F# b% O  g+ l$ I
简  介 
+ d1 j* ]8 I5 q' S/ o! C6 F0 i; Q
; q% c8 }# G" `5 b1 h. u  新井英树名作漫画将拍摄真人映画,安田显主演,吉田惠教导演,以少子高龄化,本国人雇佣等社会题目为布景,描写仆人公与菲律宾女性之间“爱与愿望”的故事。2018年春季公映。
2 r( [! P9 A( B( A. u7 j2 T2 K/ z% `: a. e: ?1 l' ?; q0 [
  1. Video, v5 [0 i' Z$ P$ I/ ~" I$ o
  2. ID                                       : 12 v% N9 y1 {  k! s! r& I
  3. Format                                   : AVC  {$ C8 s) ]. p
  4. Format/Info                              : Advanced Video Codec; b. `" \5 M% G# L- z
  5. Format profile                           : High@L4.1
    8 g& L. q8 m4 s! G6 e
  6. Format settings                          : CABAC / 9 Ref Frames; B6 k, {9 _  ^! l/ v
  7. Format settings, CABAC                   : Yes% }, q# e! }0 J0 F
  8. Format settings, ReFrames                : 9 frames# m5 K$ d3 E& W8 b9 I: o% R
  9. Codec ID                                 : V_MPEG4/ISO/AVC) t7 I5 {* a# Z: e0 D
  10. Duration                                 : 2 h 16 min1 v/ D+ u, _6 T6 a& ]6 S
  11. Bit rate                                 : 5 062 kb/s
    , n0 F- m$ f: z$ K# I
  12. Width                                    : 1 280 pixels* @8 B7 {* T4 Q4 b  Q3 |3 O
  13. Height                                   : 692 pixels$ ^2 N+ J# A' H$ \4 v1 w2 Q
  14. Display aspect ratio                     : 1.85:1$ x  O4 B7 l0 }, `# u" Y
  15. Frame rate mode                          : Constant1 O+ {, Z& E- P2 M7 t" @4 J6 G
  16. Frame rate                               : 23.976 (24000/1001/45378) FPS
    6 u2 ?" w8 E1 W
  17. Color space                              : YUV
    4 a  ]1 r* Q9 j3 ]' ?
  18. Chroma subsampling                       : 4:2:0
    / I, y+ E3 T$ H
  19. Bit depth                                : 8 bits4 R6 x% V# i3 q; |3 X! b
  20. Scan type                                : Progressive4 E0 }  d7 i) l3 e7 a
  21. Bits/(Pixel*Frame)                       : 0.238
    / W0 i$ F. t1 t
  22. Stream size                              : 4.83 GiB (89%)
    . n* r* m% n: P8 V. ~  h
  23. Writing library                          : x264 core 129 r2245+704+36 8e61944 tMod+MixAQ [8-bit@4:2:0 X86_64]2 b6 \, _2 ?& j% r8 L
  24. Encoding settings                        : cabac=1 / ref=9 / deblock=1:-1:-1 / analyse=0x3:0x133 / me=umh / subme=11 / psy=1 / fade_compensate=0.00 / psy_rd=1.05:0.10 / mixed_ref=1 / me_range=32 / chroma_me=1 / trellis=2 / 8x8dct=1 / cqm=0 / deadzone=21,11 / fast_pskip=0 / chroma_qp_offset=-3 / threads=18 / lookahead_threads=3 / sliced_threads=0 / nr=0 / decimate=0 / interlaced=0 / bluray_compat=0 / constrained_intra=0 / fgo=0 / bframes=10 / b_pyramid=2 / b_adapt=2 / b_bias=0 / direct=3 / weightb=1 / open_gop=0 / weightp=2 / keyint=250 / keyint_min=23 / scenecut=40 / intra_refresh=0 / rc=2pass / mbtree=0 / bitrate=5062 / ratetol=1.0 / qcomp=0.70 / qpmin=0 / qpmax=69 / qpstep=4 / cplxblur=20.0 / qblur=0.5 / ip_ratio=1.40 / pb_ratio=1.30 / aq=1 / aq-strength=0.90 / aq-sensitivity=10.00 / aq-ifactor=1.00 / aq-pfactor=1.00 / aq-bfactor=1.00 / aq2=0
    2 I! a. V1 g% R! f& @8 s' w( R
  25. Language                                 : Japanese
    2 ]1 o' h3 Q8 m  \2 Z
  26. Default                                  : Yes2 Y" ?, E3 w- O) R% V8 J. g
  27. Forced                                   : No
      |- f+ Z& ~: n. j

  28. . w1 h$ z. W  O. V( I
  29. Audio
    8 [# L% @2 p9 ^
  30. ID                                       : 2
    . r3 h, H0 |) R  c- S" O
  31. Format                                   : AC-36 `* J0 V# M5 y# M, [3 Y
  32. Format/Info                              : Audio Coding 3
    ; u! |6 e' l' q
  33. Commercial name                          : Dolby Digital% T; s1 f1 Y& f. J* t! {# w/ l+ g
  34. Codec ID                                 : A_AC3
    ) G$ A. S1 {% q1 F3 A. T5 E
  35. Duration                                 : 2 h 16 min
    $ D# t4 C- M  C* F/ \5 o
  36. Bit rate mode                            : Constant  F% G2 ~0 E9 b1 r* [: C
  37. Bit rate                                 : 640 kb/s
    ( t; M  H. N7 Q! {0 M
  38. Channel(s)                               : 6 channels
    9 e( f* b; q' @- W
  39. Channel layout                           : L R C LFE Ls Rs# T) \4 K7 N3 k8 A
  40. Sampling rate                            : 48.0 kHz4 K3 d( [1 B5 _# ~) a. I% X. C
  41. Frame rate                               : 31.250 FPS (1536 SPF)
    $ d  B9 _7 a. h( m# U
  42. Bit depth                                : 16 bits4 R# m% C. q+ q3 ^/ j& G! n4 A- z: i$ h
  43. Compression mode                         : Lossy0 ?, G' c  Q1 C$ _: a4 f( ?
  44. Stream size                              : 627 MiB (11%)+ ~! ^: V2 L4 `
  45. Language                                 : Japanese0 }3 P( M% D5 L7 E8 I% {
  46. Service kind                             : Complete Main
    / S+ o% I& W6 j+ P8 M
  47. Default                                  : Yes
    % D: Z4 e& i& g' u" }9 n
  48. Forced                                   : No
    , a  j, R8 y# y# D, K* m
  49. ; Z6 z# _# l, I
  50. Text
    ) \3 ^' B: J$ G# M; t4 ]
  51. ID                                       : 3
    ' \( N' b% H6 S& P. {. T
  52. Format                                   : ASS
      i1 |/ R" D7 e" e  d; m; V
  53. Codec ID                                 : S_TEXT/ASS
    5 v* h$ ~9 X5 l0 a7 k/ z" I
  54. Codec ID/Info                            : Advanced Sub Station Alpha
      C; r  Z- b1 x! Y
  55. Duration                                 : 2 h 12 min- n- _" C4 b7 Q0 z  k" M' @8 v
  56. Bit rate                                 : 66 b/s8 H3 e: A+ Q! @" U& X1 g" _* x
  57. Count of elements                        : 1344
    0 y7 R& d. }+ W$ J: f+ N8 J
  58. Compression mode                         : Lossless, w" k! Q1 ^, _( Z2 K
  59. Stream size                              : 64.2 KiB (0%)5 G# k% Q. r* N& y3 y
  60. Language                                 : Chinese1 ~# n+ z) B: f* w& K# Z
  61. Default                                  : Yes
    7 y3 b# j' g5 }* z) D
  62. Forced                                   : No  f* d% l; l3 d2 H( a

  63. ) Y0 k! `8 }! D7 I! p3 J
  64. Menu
    ' ^8 M9 @% F: s" }' G
  65. 00:00:00.000                             : en:第 01 章
    ' j( b/ c$ t, M  F
  66. 00:20:38.695                             : en:第 02 章
    7 @! ?' u; ]0 X) f2 ]
  67. 00:38:21.090                             : en:第 03 章* ?: W6 O, C- B1 u! j9 o. J
  68. 01:00:06.644                             : en:第 04 章
    # r4 P4 ~. Z4 D+ T7 w+ {+ ~
  69. 01:19:38.356                             : en:第 05 章
    + T! \  d. C0 G
  70. 01:45:00.669                             : en:第 06 章
    2 R) i" h+ ?% W7 d! m' D  c
  71. 02:03:46.669                             : en:第 07 章  J& Z$ p1 A& r; h8 d$ ~( w
  72. 02:12:24.353                             : en:第 08 章
复制代码

" t: u4 g" _4 @% X$ ~. _/ ?0 k5 {! S4 e) j( m# q

& Y1 o1 q, P, |( k( J! J% [. o* R/ j; g" O

# A3 D) U! E: G9 x/ k" B; G! q$ \
- B8 ]3 G5 s8 S: J7 C1 q8 u, ] 4 m: \6 i6 {* X) I, }; m! ?& u9 |: e
4 h4 r, D- E4 L3 P' c* @. Z
, H+ w  [: m: F8 o

+ l/ v+ w! r7 ~- G3 S: n
* P6 ^# j$ @8 E$ o/ {2 D$ F' z( B$ I3 y  h  W$ f% a9 D7 [% S
回复

使用道具 举报

懒得打字嘛,点击右侧快捷回复 【右侧内容,后台自定义】
您需要登录后才可以回帖 登录 | 立即注册

本版积分规则

Archiver|手机版|小黑屋| 中国高清网 ( ICP备17007870号-2 ) |网站地图 

GMT+8, 2020-8-7 18:08 , Processed in 0.243559 second(s), 39 queries .

Powered by HDchina X3.4

Copyright 2017-2019©HDchina.All right reserved

返回顶部 联系我们