查看: 24|回复: 0

[爱情片] 青涩之恋/我的傲娇男友 We.Love.2018.JAPANESE.720p.BluRay.x264-WiKi 4.00GB

[复制链接]

 成长值: 6410

级别:资源管理组

注册时间
2017-10-20
最后登录
2020-8-7
听众
1
收听
0
主题
100960
蓝光币
179212 枚
贡献
21715 点
发表于 5 天前 | 显示全部楼层 |阅读模式
译  名 青涩之恋 / 我的傲娇男友(台) / 青梅竹马·纯真之恋 / You, I Love7 M, J% ]) T5 s
片  名 青涩之恋 ういらぶ。
( R  O+ `2 S7 B( f3 J; K2 H; a/ O年  代 2018' v% u& j  Q4 v/ j& m& t
国  家 日本; W& Z7 ?( R8 J. Z' X
类  别 恋爱% R: h0 k% B" h
语  言 日语/ n2 @9 g0 ]( k. G* B# z
上映日期 2018-11-09(日本)& F! t. T) Q3 O7 W! Y
IMDb评分  7.6/10 from 20 users
8 K. v. O, A9 R7 v8 L' x" n" OIMDb链接  http://www.imdb.com/title/tt8315092/  @$ x% ^8 e9 p0 b: _' _" R) k9 u
豆瓣评分 4.2/10 from 325 users
, u1 n8 [! W; Z7 _# q0 }豆瓣链接 https://movie.douban.com/subject/27175983/- s5 N7 R& U. l
片  长 无片长信息
8 r" M8 B7 k6 _  Q+ E导  演 佐藤祐市
- z, ?6 o+ z: w主  演 平野紫耀" L3 X) \. u7 G0 h$ X
      樱井日奈子8 x+ f0 o3 N. K' j* a
      玉城蒂娜
' c* ~2 r2 k: ^2 [" P/ ?7 {/ Y      矶村勇斗
" l( J/ l' o" p$ v& S' q7 n      伊藤健太郎: ~# c+ S) c' ^2 M0 c4 g
      樱田日和
" R7 {- J! I* t' N9 d$ o- o0 G" e. K6 X7 V! f  _! g
简  介 . a' Z* m, v9 K& _  m+ |. }; @! l

2 U% ]/ }( u0 O  描写残念系美少女与抖 S 帅哥的恋爱物语,从小就超喜好优羽的凛,由于实在是过分喜好优羽了,致使他总是会不谨慎口出恶言。另一方面,虽然优羽也一样暗恋着凛,但却没有剖明的自傲。他们两人的间隔始终都只是青梅竹马吗……?* K, }) w( g5 M% T3 c( g
  出现在凛眼前的情敌和真,将为两人之间的关系带来什么样的变化?4 F- f: K' b5 X" Z

+ j2 W8 I6 W' U' [" L+ S* n
  1. Video
    ' d8 m. r3 K$ `# U$ @9 m
  2. ID                                       : 1
    3 i, ^4 G( x0 o6 E* i! @8 E
  3. Format                                   : AVC3 r2 P6 i$ U( J
  4. Format/Info                              : Advanced Video Codec8 M* B# f$ h6 K4 q
  5. Format profile                           : High@L4.1
    & V$ A# z0 i" Q3 w* Y. v$ \
  6. Format settings                          : CABAC / 9 Ref Frames
    / b  H) H, o- h" m
  7. Format settings, CABAC                   : Yes
    . u1 }# s! `. P
  8. Format settings, ReFrames                : 9 frames3 d" i9 a  v4 H. u
  9. Codec ID                                 : V_MPEG4/ISO/AVC
    0 Z# p: k5 E) v% Z
  10. Duration                                 : 1 h 39 min
    : K+ J0 c) ^$ r) l
  11. Bit rate                                 : 5 124 kb/s
    + p! F+ J4 k2 p+ Q, O
  12. Width                                    : 1 280 pixels
    ; x, h) z6 U8 |
  13. Height                                   : 690 pixels1 _  S" Z0 b) O
  14. Display aspect ratio                     : 1.85:1+ s; n4 U: Q3 Y9 _& M! _
  15. Frame rate mode                          : Constant
    , }' t# h' e! k4 d+ C8 a5 T& ~# |
  16. Frame rate                               : 23.976 (24000/1001/45378) FPS2 q' c+ ]+ r9 ^7 `4 p% T% W8 a% v
  17. Color space                              : YUV
    9 {* R5 d( v1 ^8 S& w
  18. Chroma subsampling                       : 4:2:0
    5 g# P; M. j* u. M! _
  19. Bit depth                                : 8 bits! @# X8 ^% w4 t6 J& K: W& w* c+ i
  20. Scan type                                : Progressive
    0 q& j# b% [1 o& r9 U
  21. Bits/(Pixel*Frame)                       : 0.242
    , X- W* o# T1 s. ~; G1 Y! x. Y6 `
  22. Stream size                              : 3.55 GiB (89%)
    % A, W& `# P0 T) r
  23. Writing library                          : x264 core 129 r2245+704+36 8e61944 tMod+MixAQ [8-bit@4:2:0 X86_64]# k& ^8 S3 E& e4 s' ]
  24. Encoding settings                        : cabac=1 / ref=9 / deblock=1:-3:-3 / analyse=0x3:0x133 / me=umh / subme=11 / psy=1 / fade_compensate=0.00 / psy_rd=1.05:0.10 / mixed_ref=1 / me_range=32 / chroma_me=1 / trellis=2 / 8x8dct=1 / cqm=0 / deadzone=21,11 / fast_pskip=0 / chroma_qp_offset=-3 / threads=18 / lookahead_threads=3 / sliced_threads=0 / nr=0 / decimate=0 / interlaced=0 / bluray_compat=0 / constrained_intra=0 / fgo=0 / bframes=10 / b_pyramid=2 / b_adapt=2 / b_bias=0 / direct=3 / weightb=1 / open_gop=0 / weightp=2 / keyint=250 / keyint_min=23 / scenecut=40 / intra_refresh=0 / rc=2pass / mbtree=0 / bitrate=5124 / ratetol=1.0 / qcomp=0.70 / qpmin=0 / qpmax=69 / qpstep=4 / cplxblur=20.0 / qblur=0.5 / ip_ratio=1.40 / pb_ratio=1.30 / aq=1 / aq-strength=0.90 / aq-sensitivity=10.00 / aq-ifactor=1.00 / aq-pfactor=1.00 / aq-bfactor=1.00 / aq2=0
    * C5 r- w1 {" g0 [" O) }& k
  25. Language                                 : Japanese# M% d- N" J$ [- ~. @2 K& j5 G. \
  26. Default                                  : Yes
    7 i: @' K% c. B' \: A$ ]
  27. Forced                                   : No  c; D/ }# O- s* e. d% p' L

  28. ; F# Y8 I0 o7 @  B+ ^
  29. Audio
    7 `9 L2 r' x; \( }* M$ e
  30. ID                                       : 2; I" r- o. F4 O* y  X; o
  31. Format                                   : AC-3( L  d' d) l9 T( G+ ?+ q" j3 a
  32. Format/Info                              : Audio Coding 3
    1 Q8 h& u+ F$ Z" z* S
  33. Commercial name                          : Dolby Digital4 w! s0 C3 W- j, r
  34. Codec ID                                 : A_AC3
    8 u: b# R5 c% |6 W+ w4 V
  35. Duration                                 : 1 h 39 min% F) V- C9 T1 R' ~
  36. Bit rate mode                            : Constant1 j5 k) @5 `4 j4 u+ s5 P, n. |
  37. Bit rate                                 : 640 kb/s
    2 j9 l  k8 G! c5 b- C
  38. Channel(s)                               : 6 channels% j( ?! p, t$ X& N/ `: p6 t7 v
  39. Channel layout                           : L R C LFE Ls Rs
    , s; b$ W# g( R" f
  40. Sampling rate                            : 48.0 kHz
    - m& X, u4 O/ f9 ]0 q9 a; }! L5 U- Q
  41. Frame rate                               : 31.250 FPS (1536 SPF)
    6 j& k/ k! ^/ J$ K2 q  W) P/ T: T
  42. Bit depth                                : 16 bits, H  e3 ?7 h6 n2 M5 m" J0 X
  43. Compression mode                         : Lossy: g7 z! R2 S; K  `" {/ N+ K
  44. Stream size                              : 454 MiB (11%)
    ; U6 ^. t  N, _$ T
  45. Language                                 : Japanese
    4 E5 o& o" K  X6 q1 W; V8 h# S9 o
  46. Service kind                             : Complete Main; e0 m- x) @4 h& H5 E
  47. Default                                  : Yes+ k6 B& G9 ~  T
  48. Forced                                   : No+ m, }5 u9 x+ c

  49. 0 c+ G! P3 p  n
  50. Text #1$ n4 K' ?8 Q# U' K. p
  51. ID                                       : 3# T$ @: b* v1 J  ?* a
  52. Format                                   : UTF-8
    & f: ~0 B- l$ W2 p  l& f
  53. Codec ID                                 : S_TEXT/UTF8, J3 j: s" n7 E4 Z4 N3 n( F5 f
  54. Codec ID/Info                            : UTF-8 Plain Text% p. M9 A5 a7 K" _3 _2 W
  55. Duration                                 : 1 h 38 min
    % |: R5 d- U* o0 Z  G+ e
  56. Bit rate                                 : 44 b/s+ M$ ]6 ~- a' e# C( `: F# b* v
  57. Count of elements                        : 1381
    & {- T3 O2 @3 l; w# I
  58. Stream size                              : 32.3 KiB (0%)0 [9 |3 l9 }* d8 O
  59. Title                                    : Simplified
    $ g; c/ P. W5 D& M
  60. Language                                 : Chinese
    2 i# M1 z; O) H5 a4 v
  61. Default                                  : Yes
    - @. h* N6 x7 _# |3 Q5 u) E0 j
  62. Forced                                   : No
    3 E5 j1 s- P! ?2 {* f

  63. 7 Q. L4 Y) V0 [" q; Y
  64. Text #28 n) M) Z4 {! [3 R; u" k, q* t
  65. ID                                       : 4# H, Q) U. O2 m7 }0 d; z  h
  66. Format                                   : UTF-8
    " J. c% ]! F7 G
  67. Codec ID                                 : S_TEXT/UTF88 k% ~7 v% V& j* M
  68. Codec ID/Info                            : UTF-8 Plain Text
    , V: N9 }7 r& R& T* q- @
  69. Duration                                 : 1 h 38 min7 K7 Y! h7 g2 `# H- B# E9 f
  70. Bit rate                                 : 44 b/s
    ) s. u* e! @5 @" T
  71. Count of elements                        : 1381
      o, {* v8 f* J' `6 [
  72. Stream size                              : 32.3 KiB (0%)+ V0 \7 J* U9 q9 i# s
  73. Title                                    : Traditional2 j( Q' m5 P. g
  74. Language                                 : Chinese
    2 k( c1 `- n' {' T2 h
  75. Default                                  : No/ g% H. w& H) E8 J) B6 N
  76. Forced                                   : No
    ; U% E9 h. k2 N+ `( u. q1 ^
  77. 7 R, L: ^' O/ H# g
  78. Menu
    9 ?* `# [7 C8 O$ k4 o1 N* ]
  79. 00:00:00.000                             : en:第 01 章+ w: D0 `) V3 z5 T; U5 Y
  80. 00:16:15.099                             : en:第 02 章
    4 D) g4 f3 f3 Z1 k6 k
  81. 00:21:24.157                             : en:第 03 章
    9 g8 M6 f6 K: C2 ]
  82. 00:25:28.527                             : en:第 04 章
    3 f6 e- h% x2 u% ~3 N
  83. 00:38:32.768                             : en:第 05 章
    5 m" j4 e( J9 A
  84. 00:43:54.173                             : en:第 06 章# ?9 x" g  D; |5 `# H
  85. 00:54:59.421                             : en:第 07 章, K6 G2 D+ R. c
  86. 01:03:34.393                             : en:第 08 章
    9 ^2 d% I- J4 ~9 w
  87. 01:15:48.752                             : en:第 09 章: F: Y2 t& T% H- f3 Z( ~
  88. 01:35:35.479                             : en:第 10 章* `. g9 y# I6 ^5 t1 r4 Z
  89. 01:39:10.945                             : en:第 11 章
复制代码

, _4 r% [' _& X; @* G4 y, V
5 x" q( m' a* p% L( z  x* ?( W. v

! R/ b  D. q2 A( k: T$ u- S; G
: ?5 P' A9 s4 Y2 N! q
: o: k3 @4 W: T9 P% [5 K 2 }5 @/ p* }# a: L
& Q- \7 H( m% W8 m: l& q
; q) d6 p5 n$ {( g' H+ F6 L
6 K* y6 H& ]' ^
/ R- I. H8 g9 q3 M3 s% R

* u9 \- Z6 L$ h  s8 b3 Z
回复

使用道具 举报

懒得打字嘛,点击右侧快捷回复 【右侧内容,后台自定义】
您需要登录后才可以回帖 登录 | 立即注册

本版积分规则

Archiver|手机版|小黑屋| 中国高清网 ( ICP备17007870号-2 ) |网站地图 

GMT+8, 2020-8-7 18:01 , Processed in 0.185471 second(s), 39 queries .

Powered by HDchina X3.4

Copyright 2017-2019©HDchina.All right reserved

返回顶部 联系我们