查看: 29|回复: 0

[爱情片] 江湖儿女 Ash.Is.Purest.White.2018.SUBBED.720p.BluRay.x264.DD5.1-HDC 7.25GB

[复制链接]

 成长值: 6410

级别:资源管理组

注册时间
2017-10-20
最后登录
2020-8-7
听众
1
收听
0
主题
100960
蓝光币
179210 枚
贡献
21715 点
发表于 5 天前 | 显示全部楼层 |阅读模式

9 A; @+ U! v0 l. p, H# ^8 D& Q

7 H8 O$ ~1 ?9 H; R9 L8 `$ X) @5 r4 J. q& r+ `! G
译  名 Ash is Purest White / Money & Love / 灰烬是最雪白的 / 金钱与恋爱% i1 ]# I6 _+ t- b9 M( b
片  名 江湖后代4 C4 j1 ]$ ^8 [" r: Y8 N
年  代 2018. ]+ @2 d3 T$ d2 U4 {2 x& E
产  地 中国大陆 / 法国 / 日本
7 L; \+ x, [7 f类  别 恋爱 / 犯罪' _- Y% G0 U2 H
语  言 汉语普通话 / 山西方言 / 湖北方言 / 重庆方言7 L3 u1 G- a4 E# ?3 w& ?  N
上映日期 2018-05-11(戛纳电影节) / 2018-09-21(中国大陆)4 O6 ^* I4 s  q. T$ i$ ~# K9 \
IMDb评分  7.1/10 from 3046 users
" C% x! o" v) o4 M7 uIMDb链接  http://www.imdb.com/title/tt7298400& }- v' \, o. c# Y4 M) i
豆瓣评分 7.6/10 from 188286 users
6 N% Y/ w, h" w: N豆瓣链接 https://movie.douban.com/subject/26972258/7 G( B- d# I/ `. o( i
片  长 137分钟(中国大陆)
7 v0 r2 ]/ e7 D# t导  演 贾樟柯 Zhangke Jia
% l$ p. k/ ~( _% L+ X. c; d' G编  剧 贾樟柯 Zhangke Jia
. n7 C* t7 ~; V" |: x8 v主  演 赵涛 Tao Zhao% [2 e7 ]; o; K% S
      廖凡 Fan Liao6 P' D( `" e4 V% g, n
      徐峥 Zheng Xu; T" f& {/ d! N) R
      梁嘉艳 Casper Liang. R9 K3 P! s8 ]# Z
      刁亦男 Yi'nan Diao
, M6 E- z4 z' p5 D5 z$ P! m      张一白 Yibai Zhang
7 w! s9 Y( g6 n8 i      丁嘉丽 Jiali Ding
0 |" G: I$ S8 f' U8 J      张译 Yi Zhang, @- J% V  v( \# G, B% p4 x
      董子健 Zijian Dong/ b9 ~) P' r; G! H  H
      李宣 Xuan Li
+ {$ N% I3 F; n4 @% m      查娜 Chana
) G8 x2 _+ p$ H5 w8 Q4 ]  X      冯家妹 Jiamei Feng
, k# k, ?# E; g% \4 B0 i3 E( P& ]6 p      康亢 Kang Kang. {0 R3 Y* Q( D' M  e" b
      张晓军 Xiaojun Zhang# j# j; {/ I& J& a' h
      柳敏 Min Liu, L* y  [' M4 C' \& L/ F
      王谭 Tan Wang: l! d1 y: L( @, E: e
      原文倩 Wenqian Yuan) q& a$ z$ j$ e1 g% B( [9 B4 G2 I/ E$ a
- U1 Y9 G. V0 D: }* ~9 d

7 @. F  h) j# d5 F9 E标  签 中国大陆 | 社会 | 人性 | 文艺 | 剧情 | 恋爱 | 2018 | 犯罪7 G8 ~* U  h  m8 P2 E1 N* F
- _2 T/ H/ D2 o; P. K
简  介  
8 F$ b( U. k: Y0 s8 m9 H; d' `2 @1 k4 j
  故事起头于2001年的山西大同,巧巧(赵涛 饰)和斌斌(廖凡 饰)相恋多年,巧巧一心希望可以和斌斌成家过平稳的生活,但斌斌身为当地的大佬,有着自己更高远的志向。一场意外中,斌斌遭人暗害危在旦夕,巧巧拿着斌斌私藏的手枪自告奋勇救了斌斌,自己却由于不法持枪而被判处了五年的禁锢。( t6 I  h2 w' h
一晃眼五年曩昔,出狱后的巧巧发现全部天下都发生了天翻地覆的变化,唯一稳定的是她对斌斌真挚的豪情。巧巧奔走风尘寻觅斌斌的着落,但此时的斌斌早已经落空了昔日的锋铓,而且身旁已有了新的女友。身无分文的巧巧靠着自己的聪明摸爬滚打,终究为自己挣得了一片六合。( i/ ^$ V( F, V+ j* n

$ d- T  s6 Y8 T* c: a2 E8 [获奖情况  
- d9 d9 }. p: {: H$ Y1 @3 r$ Y1 x2 g- ?) K. n: u# d
  第71届戛纳电影节(2018)* P7 h; @: q7 _& H, O. \
  主比赛单元 金棕榈奖(提名) 贾樟柯
0 y0 A8 T. j4 e1 Y  |, T1 d4 X( `4 o: O
  第55届台北金马影展(2018)
. }* c( S$ y5 e4 u  金马奖 最好女配角(提名) 赵涛
# s) D6 @0 ?- D! B: d/ |$ l+ i+ z
  第38届香港电影金像奖(2019)
$ z7 }  F8 P$ E1 ^4 y8 |  最好两岸华语电影(提名)
! j5 h9 \5 c6 r0 H% w1 L1 o% l! [1 @) [0 n3 K/ i9 Y, u6 o7 R
  第13届亚洲电影大奖(2019)
( I! W7 E- b" N+ g% Q9 R- t  最好女配角(提名) 赵涛8 H( H6 E( n! y: J
  最好编剧 贾樟柯
! s) Z, c7 F+ L* i2 D
/ N& x* a/ o0 u; i  第5届豆瓣电影年度榜单(2018)- u  d2 b2 x! a0 g
  评分最高的恋爱片(提名)& b  q) J9 z0 X

8 u: ~9 ^+ Z. U. n* e3 _3 @; v+ ]: o" L, V8 v. q  D+ @

/ v' p7 ?4 O4 m: J
  1. Video
    # b4 i% O! b+ g! s! S7 R9 a
  2. ID                                       : 10 q5 t: \; y3 j9 g/ s
  3. Format                                   : AVC$ G, h0 [3 [+ e  _$ y, T! P* I8 h# m
  4. Format/Info                              : Advanced Video Codec
    ; Z0 g2 p6 n1 j6 h6 A. V
  5. Format profile                           : High@L4.1
    4 b) T, Q$ _" y7 g+ N
  6. Format settings                          : CABAC / 9 Ref Frames8 |4 c2 ~4 A3 M: }! Y
  7. Format settings, CABAC                   : Yes
    : K* [* Q" T6 R) O- f6 [
  8. Format settings, ReFrames                : 9 frames
    : z; i3 ^3 m$ j) r! N. j
  9. Muxing mode                              : Header stripping/ S# X3 F$ ]7 M) E4 P
  10. Codec ID                                 : V_MPEG4/ISO/AVC" E+ a7 t/ H) p! b, I; i
  11. Duration                                 : 2 h 15 min. _7 L3 i4 x) G4 L
  12. Bit rate                                 : 7 000 kb/s7 J8 E& x, X1 ?' Z+ y" c* z8 P
  13. Width                                    : 1 280 pixels0 P4 w9 Q2 D1 ~+ c8 d/ Q, z. D3 S
  14. Height                                   : 692 pixels
    : ~9 t- r0 ~% l- h% K8 H8 k
  15. Display aspect ratio                     : 1.85:1' O5 @: ?- Z% y6 i( T% N& P7 z
  16. Frame rate mode                          : Constant
    2 N5 B" o) N- d3 B$ h, C
  17. Frame rate                               : 23.976 (24000/1001/45378) FPS$ n9 j2 g7 B3 b+ V' Y
  18. Color space                              : YUV
    9 M: V7 G$ F- Z# t
  19. Chroma subsampling                       : 4:2:01 c8 S+ \' k1 B3 E" G1 J
  20. Bit depth                                : 8 bits
    ' y3 A( O) C; _9 V1 Z% |/ H
  21. Scan type                                : Progressive
    - J" G# T$ u9 u; O. r9 E" i8 H
  22. Bits/(Pixel*Frame)                       : 0.330
    9 y, P8 x" F2 k, F  I7 d: o
  23. Stream size                              : 6.50 GiB (90%)
      K0 g- @9 u, b
  24. Writing library                          : x264 core 148 r2665kMod a01e339/ @5 E1 c( K2 L* U0 i5 Q) g
  25. Encoding settings                        : cabac=1 / ref=9 / deblock=1:-3:-3 / analyse=0x3:0x133 / me=umh / subme=11 / psy=1 / fade_compensate=0.00 / psy_rd=1.05:0.00 / mixed_ref=1 / me_range=32 / chroma_me=1 / trellis=2 / 8x8dct=1 / cqm=0 / deadzone=21,11 / fast_pskip=0 / chroma_qp_offset=-2 / threads=22 / lookahead_threads=3 / sliced_threads=0 / nr=0 / decimate=0 / interlaced=0 / bluray_compat=0 / constrained_intra=0 / fgo=0 / bframes=8 / b_pyramid=2 / b_adapt=2 / b_bias=0 / direct=3 / weightb=1 / open_gop=0 / weightp=2 / keyint=240 / keyint_min=24 / scenecut=40 / intra_refresh=0 / rc=2pass / mbtree=0 / bitrate=7000 / ratetol=1.0 / qcomp=0.70 / qpmin=0 / qpmax=69 / qpstep=4 / cplxblur=20.0 / qblur=0.5 / ip_ratio=1.20 / pb_ratio=1.20 / aq=3:0.85
    + B$ Q. r9 M9 A6 C6 c' N0 x/ G
  26. Default                                  : Yes* ^* v7 v6 u! H) k' f. b
  27. Forced                                   : No
      S0 o. e4 Z( I
  28. 9 f  [; n' ^. I# e& B
  29. Audio
    1 S$ m9 b7 }* O# ]) R0 \! v
  30. ID                                       : 2/ K5 z: [$ M2 n1 K
  31. Format                                   : AC-30 O% G  `+ g; [2 r: G
  32. Format/Info                              : Audio Coding 3
    ( e/ _, }7 c1 S3 d3 _2 _
  33. Commercial name                          : Dolby Digital; k. N5 Z3 g+ q, t
  34. Muxing mode                              : Header stripping
    6 [$ [  S0 h8 P6 `$ G3 j+ X
  35. Codec ID                                 : A_AC3
    7 s/ V, d+ Q3 n3 ?0 I  \, Y; l
  36. Duration                                 : 2 h 15 min
    ( y3 {. ]  [, q
  37. Bit rate mode                            : Constant; C7 A- P* p' ]$ Z/ g* }: }
  38. Bit rate                                 : 640 kb/s
    2 a4 F1 i, M# _+ c& U7 A# t$ f
  39. Channel(s)                               : 6 channels
    6 x) c8 ~4 w* w7 P7 _
  40. Channel layout                           : L R C LFE Ls Rs
    , T' n7 c- w( H9 b
  41. Sampling rate                            : 48.0 kHz
    5 {% l( u3 O" `) v% S0 u: B
  42. Frame rate                               : 31.250 FPS (1536 SPF)) q( K6 A  n. o. X! R
  43. Bit depth                                : 16 bits
    3 H% [$ t' }. F7 \1 V
  44. Compression mode                         : Lossy; b% e/ D. ?+ k9 A' e
  45. Stream size                              : 623 MiB (8%)
    4 E* K7 t# N7 {, Z+ s
  46. Service kind                             : Complete Main% _; Z7 [5 p9 x9 B4 z
  47. Default                                  : No
    * F9 y' H( `0 C* w' ]" I0 P- D
  48. Forced                                   : No
    ' v3 n; T* X  s9 E& c" ?

  49. # }5 J( P* j% m+ l
  50. Text
    8 Z. T6 c1 l- o9 Z
  51. ID                                       : 3
    , m3 @% `) T& o! l/ i+ H
  52. Format                                   : PGS  l+ W8 ^5 v/ h, e0 L
  53. Muxing mode                              : zlib1 Z6 k* {/ v2 ~" h- k# S! q, P/ _% \! p6 Z
  54. Codec ID                                 : S_HDMV/PGS
    $ [5 ]  B; }5 k8 [( y
  55. Codec ID/Info                            : Picture based subtitle format used on BDs/HD-DVDs
    / u- N7 s( N* \. q
  56. Language                                 : Chinese
    - b4 L, b8 q2 D( @
  57. Default                                  : No3 B  f( M7 D6 `
  58. Forced                                   : No& h* r) F* a  [: D: R: i
  59. . T- e% I  V0 p" l
  60. Menu
    8 r* ^; U5 k; D# d  t; k+ N
  61. 00:00:00.000                             : en:00:00:00.000" r: d1 ^# z8 D/ ]3 p
  62. 00:08:42.981                             : en:00:08:42.9812 Y1 r; R$ p/ h/ D, z7 H$ X: |9 |
  63. 00:17:09.612                             : en:00:17:09.612
    8 D* s2 ~( I/ m
  64. 00:27:27.354                             : en:00:27:27.354# |" Q; n5 F- S
  65. 00:37:16.484                             : en:00:37:16.484; j: o/ L& T) n! r: k
  66. 00:45:38.069                             : en:00:45:38.069  C" y3 H, U. a; Y
  67. 00:51:47.021                             : en:00:51:47.0219 w; E& ^% }1 w+ b& N/ ^4 n- j
  68. 00:57:05.172                             : en:00:57:05.172, \7 _/ d- R) F
  69. 01:07:54.112                             : en:01:07:54.112; }( `, a& o1 |/ @% q
  70. 01:19:02.655                             : en:01:19:02.655
    ' G/ e" j) ~) n  c& @% H
  71. 01:33:24.516                             : en:01:33:24.516
    , {& |. f4 [$ q
  72. 01:45:31.242                             : en:01:45:31.242
    - l& [3 a9 i* B! L9 D/ g" K2 ?
  73. 01:56:59.930                             : en:01:56:59.930
    ; _4 G) m' I5 b+ E, h* R* m0 T
  74. 02:08:26.115                             : en:02:08:26.115
复制代码

4 ?9 A' h  J/ R
" B/ _7 n; d3 L+ |( T1 F
6 r( A' l, O) Q' i+ ~* [( b4 d* n, t/ A7 @7 b

& G- T5 q# O' C' ~! U% e& d* _9 {; |

6 ?* C' R5 y4 i! X( o' v) O9 q0 k* c' P" V9 f$ O* A

& e: _: ^/ ?7 R2 P, G
1 y7 P" d' `# K, K- B) }5 ]
+ w# `4 G% E3 H% q! R
- Q8 v% |* E, o* u
回复

使用道具 举报

懒得打字嘛,点击右侧快捷回复 【右侧内容,后台自定义】
您需要登录后才可以回帖 登录 | 立即注册

本版积分规则

Archiver|手机版|小黑屋| 中国高清网 ( ICP备17007870号-2 ) |网站地图 

GMT+8, 2020-8-7 17:53 , Processed in 0.201534 second(s), 39 queries .

Powered by HDchina X3.4

Copyright 2017-2019©HDchina.All right reserved

返回顶部 联系我们