查看: 14|回复: 0

[爱情片] 江湖儿女 Ash.Is.Purest.White.2018.SUBBED.720p.BluRay.x264-BRMP 6.56GB

[复制链接]

 成长值: 6410

级别:资源管理组

注册时间
2017-10-20
最后登录
2020-8-7
听众
1
收听
0
主题
100960
蓝光币
179204 枚
贡献
21715 点
发表于 5 天前 | 显示全部楼层 |阅读模式
. q4 k& I$ ?( _/ K. ]$ d8 D

; z+ Z& f: M  ]' O
5 L( Z5 S) [: M& z4 C8 W9 ], O! L1 y8 P
译  名 Ash is Purest White / Money & Love / 灰烬是最雪白的 / 金钱与恋爱: _+ h9 |% t4 f& H
片  名 江湖后代
; n8 x- M0 \3 R, D年  代 2018
# }% p" ?. ^6 h. `产  地 中国大陆 / 法国 / 日本
; W5 a1 P7 k, o: w7 S' C6 F类  别 恋爱 / 犯罪
8 a8 g  [+ ^( T" p, K语  言 汉语普通话 / 山西方言 / 湖北方言 / 重庆方言
  F. E: m7 J, j- c上映日期 2018-05-11(戛纳电影节) / 2018-09-21(中国大陆)) j) c& T* ]8 e& i/ m8 z. C5 C! n
IMDb评分  7.1/10 from 3046 users7 C  d: Z; q# S) ?6 W  @
IMDb链接  http://www.imdb.com/title/tt7298400
: \. B; C: P0 ]豆瓣评分 7.6/10 from 188286 users
, |' R+ f) E: q! ?1 g豆瓣链接 https://movie.douban.com/subject/26972258/1 _( d3 Z% l# ~3 g; c8 G4 _
片  长 137分钟(中国大陆)+ L7 e0 \+ @9 Z6 L
导  演 贾樟柯 Zhangke Jia2 a! ]! l  Z5 o6 m. |5 ?7 h& @  `* g
编  剧 贾樟柯 Zhangke Jia% ]0 V4 [) [8 |7 r) r7 w% O
主  演 赵涛 Tao Zhao6 T" o& L' w8 H) q% J
      廖凡 Fan Liao
+ n7 n  V$ |3 ?5 F9 b+ U/ V; h      徐峥 Zheng Xu% s* T/ u" G: Q7 l5 V) F6 F- T9 T
      梁嘉艳 Casper Liang+ w2 [9 b3 I) S8 Z- X: ~5 ?
      刁亦男 Yi'nan Diao% f5 e& v( x+ g' N* F
      张一白 Yibai Zhang9 Y. n* P" Q$ ]8 p
      丁嘉丽 Jiali Ding, b* e4 l& k3 q- G: G$ L# U
      张译 Yi Zhang! ^( a/ A9 G+ A6 R
      董子健 Zijian Dong
8 x3 p2 ~% {$ j, X# |      李宣 Xuan Li/ m/ H4 @( M1 x' k+ Q* v. u/ `
      查娜 Chana
$ J$ f4 _1 G! v1 J# T& R$ I7 t      冯家妹 Jiamei Feng* x' [2 H" F& m$ b  d$ I/ \1 t& A
      康亢 Kang Kang
% `+ V! ^( b2 r4 Y8 M      张晓军 Xiaojun Zhang8 z+ b0 }" z( F
      柳敏 Min Liu
& D( F, d5 V2 x$ \# x6 r* E) H      王谭 Tan Wang
& b  P, E) i) o! \/ K      原文倩 Wenqian Yuan* k& R9 C3 j( M2 a* q# A0 A' r
/ y6 \' b, l# e' V2 _7 ]+ C3 _
5 Y2 S% U: s2 r  a
标  签 中国大陆 | 社会 | 人性 | 文艺 | 剧情 | 恋爱 | 2018 | 犯罪2 Z  @" n2 m& I# G
' L. x3 V! M! e: Y5 T7 x! \
简  介  
2 }5 n9 w0 w% ?3 @* X9 V3 L
5 J: }  Z: l) L1 q- G  故事起头于2001年的山西大同,巧巧(赵涛 饰)和斌斌(廖凡 饰)相恋多年,巧巧一心希望可以和斌斌成家过平稳的生活,但斌斌身为当地的大佬,有着自己更高远的志向。一场意外中,斌斌遭人暗害危在旦夕,巧巧拿着斌斌私藏的手枪自告奋勇救了斌斌,自己却由于不法持枪而被判处了五年的禁锢。$ S0 K( c" G" N
一晃眼五年曩昔,出狱后的巧巧发现全部天下都发生了天翻地覆的变化,唯一稳定的是她对斌斌真挚的豪情。巧巧奔走风尘寻觅斌斌的着落,但此时的斌斌早已经落空了昔日的锋铓,而且身旁已有了新的女友。身无分文的巧巧靠着自己的聪明摸爬滚打,终究为自己挣得了一片六合。
) i# A# k3 Q5 z& j$ F$ g, ^5 g7 d: n3 v0 e7 h* ~6 w6 H0 T* a
获奖情况  
# V  |2 W! @  F& {. u( i
2 {* g! ~# y4 {% \+ Q  第71届戛纳电影节(2018)  b% V% C0 {. Z5 ^+ r! P$ Z6 Z
  主比赛单元 金棕榈奖(提名) 贾樟柯: V! [) s6 o0 L% _
5 t" E( b0 h- p* o/ }- Q
  第55届台北金马影展(2018)
; I$ A- u) ]6 s  金马奖 最好女配角(提名) 赵涛
  I& m$ i- c' G  R( {2 q0 T2 T' s. U+ e) }: ?- o0 P
  第38届香港电影金像奖(2019)
9 X! Z0 I* F" S  f" \/ u1 D% n  最好两岸华语电影(提名)
+ l$ P" `1 p; A& B- D" ?  D9 h% l  O# Y/ T  y
  第13届亚洲电影大奖(2019)
4 Y1 V8 G% _% d, }5 `5 }  最好女配角(提名) 赵涛; ?* f9 k; }4 P6 }( [
  最好编剧 贾樟柯
) K+ y) ^: r( W4 g; ^
# |# ?5 P5 r: U* N  第5届豆瓣电影年度榜单(2018)
5 \! c) ^- \, R) }* f2 j3 b5 [  评分最高的恋爱片(提名)
# Y) U5 b" k* B' I% J! P2 J! S1 i$ ~6 x; l. @& C1 v( P0 y
+ D/ o0 Z: Y4 c7 P; G! x# x" ^6 }

8 @/ B( Z" q/ }  a; n  [% \* ]
  1. Video
    9 v: @) H% F/ P/ x7 q9 w
  2. ID                                       : 1
    8 W  U. j' w: W, A/ C9 V0 B
  3. Format                                   : AVC
    2 l6 a& ?6 q5 ]: n+ \) e: W
  4. Format/Info                              : Advanced Video Codec
    + c; N) i3 e5 v: N9 I8 s
  5. Format profile                           : High@L4.1) t1 J1 j# }' Y, q' }5 w; z
  6. Format settings                          : CABAC / 5 Ref Frames7 @" U! y9 Z( X4 E6 j4 m
  7. Format settings, CABAC                   : Yes  B' E# s$ ?0 J0 `- B1 V
  8. Format settings, Reference frames        : 5 frames. X, i) ^2 _  }# R2 I9 A
  9. Codec ID                                 : V_MPEG4/ISO/AVC8 _$ z: s9 w  T2 K* K
  10. Duration                                 : 2 h 15 min, b  o$ Y/ _  a3 N
  11. Bit rate                                 : 5 397 kb/s
    / P' S0 ]& c' [( t
  12. Width                                    : 1 280 pixels
    / x% X, p8 d) p5 q
  13. Height                                   : 696 pixels  Y2 v6 A5 E3 j% x5 O
  14. Display aspect ratio                     : 1.85:1/ n( w% R0 S2 W  `
  15. Frame rate mode                          : Constant( {2 c; I  c: \0 I( x
  16. Frame rate                               : 23.976 (24000/1001/45378) FPS5 b5 P: z& {1 l/ L
  17. Color space                              : YUV
    0 G& Y' Y, e# S/ ?- w! V
  18. Chroma subsampling                       : 4:2:0
    8 X" V1 V4 E( ]7 p% Z6 x0 \
  19. Bit depth                                : 8 bits
    4 }/ X; k/ l2 k* A) h! v4 [$ v
  20. Scan type                                : Progressive6 R9 p0 M, O& o% U
  21. Bits/(Pixel*Frame)                       : 0.253
    7 M$ n. @" e; ~- w7 H# n
  22. Stream size                              : 5.13 GiB (78%)! t' D1 f6 B8 ~4 w; X6 f5 |
  23. Writing library                          : x264 core 157 r2969 d4099dd1 B4 P! Q) W" c4 v! L0 ?  ~5 G
  24. Encoding settings                        : cabac=1 / ref=5 / deblock=1:0:0 / analyse=0x3:0x133 / me=umh / subme=7 / psy=1 / psy_rd=1.00:0.00 / mixed_ref=1 / me_range=16 / chroma_me=1 / trellis=1 / 8x8dct=1 / cqm=0 / deadzone=21,11 / fast_pskip=0 / chroma_qp_offset=-2 / threads=18 / lookahead_threads=3 / sliced_threads=0 / nr=0 / decimate=1 / interlaced=0 / bluray_compat=0 / constrained_intra=0 / bframes=3 / b_pyramid=2 / b_adapt=1 / b_bias=0 / direct=1 / weightb=1 / open_gop=0 / weightp=2 / keyint=240 / keyint_min=23 / scenecut=40 / intra_refresh=0 / rc_lookahead=40 / rc=2pass / mbtree=1 / bitrate=5397 / ratetol=1.0 / qcomp=0.60 / qpmin=10 / qpmax=51 / qpstep=4 / cplxblur=20.0 / qblur=0.5 / ip_ratio=1.40 / aq=1:1.00
    2 R: Z7 X. {3 f+ |
  25. Default                                  : Yes: |4 Q% F) {( V. _: V6 @. B
  26. Forced                                   : No# u" y8 W% }) o! d# P1 o9 K
  27. Audio
    2 [% V/ {. m5 O9 z. z: V4 o
  28. ID                                       : 2
    ( E" S6 `9 K- B# P
  29. Format                                   : DTS
    9 t! |/ T) b! H+ |( D9 P. [, [: u0 `
  30. Format/Info                              : Digital Theater Systems# U6 [1 C1 k4 S4 h$ U
  31. Codec ID                                 : A_DTS; t- u( q" Z$ n  X
  32. Duration                                 : 2 h 15 min
    9 T# ?, H0 \! c6 w: z  m) q
  33. Bit rate mode                            : Constant* D$ O' D8 s5 q  [- I* h2 \
  34. Bit rate                                 : 1 509 kb/s
    1 U  b+ O' t9 I& {' w
  35. Channel(s)                               : 6 channels
      c8 k, l2 b* a/ N- e0 Q
  36. Channel layout                           : C L R Ls Rs LFE$ f( m4 b. |' l8 [# c9 u' `
  37. Sampling rate                            : 48.0 kHz* t1 z6 N8 E3 G; W# h" d
  38. Frame rate                               : 93.750 FPS (512 SPF)
      v8 s. i. g5 @: g
  39. Bit depth                                : 24 bits
    - ]* K# B* l% u5 q
  40. Compression mode                         : Lossy% Q$ m6 n3 ^5 I/ F
  41. Stream size                              : 1.43 GiB (22%). x2 z& m( W& S' W
  42. Language                                 : Chinese
    1 ~6 M" j5 w' c! {7 `* E) x) a
  43. Default                                  : Yes4 d* T6 t4 U1 g4 g( l* |8 e, M
  44. Forced                                   : No
    . h7 g/ l" }% S: n! f, F
  45. Menu9 C7 F* h$ @3 W: J) O0 A  B& A* w
  46. 00:00:00.000                             : en:Chapter 01$ X: z4 W, O5 a- U* ?0 ?1 Q: @6 Q4 D. n
  47. 00:08:42.981                             : en:Chapter 02
    0 r$ E; l$ @& j6 l& m
  48. 00:17:09.612                             : en:Chapter 038 d. b: ]8 I( [4 m6 {7 {) y$ x  [
  49. 00:27:27.354                             : en:Chapter 04
    7 v  Y+ n) ]! z0 k& `8 N! J
  50. 00:37:16.484                             : en:Chapter 05
    : E* ~/ t/ ^% q( }# e: Y$ @
  51. 00:45:38.069                             : en:Chapter 06
    4 Q# i. @' ]2 |' Z4 \$ z( l
  52. 00:51:47.021                             : en:Chapter 07* l+ b, _1 @- t7 v
  53. 00:57:05.172                             : en:Chapter 08: p# G, s( @/ L
  54. 01:07:54.112                             : en:Chapter 09' O4 m2 T' Y+ H' o; b( U& M& E( i
  55. 01:19:02.655                             : en:Chapter 10. U) f! ^4 H6 ~; u) \) c4 t
  56. 01:33:24.516                             : en:Chapter 11
    3 a$ J) W/ _* f0 N4 j
  57. 01:45:31.242                             : en:Chapter 12
    5 y7 @, e! ^7 R
  58. 01:56:59.930                             : en:Chapter 133 s6 f# }, j# M0 c! {- I" Y& v
  59. 02:08:26.115                             : en:Chapter 14
复制代码

8 i* w9 c, X% Y% s2 L! w, `' S* S' T- j  Q! r1 D; U
2 e. {2 z$ p2 n+ W2 h7 H% S' h

1 L0 j; {3 J# J: N" m9 s! D7 e
7 a0 m8 O1 F9 m2 f4 Y7 T* J/ H, W7 `* U

' T1 Q; l& ~+ C* \
7 D7 q, D9 q  b& g; i# q5 [, Y. f
回复

使用道具 举报

懒得打字嘛,点击右侧快捷回复 【右侧内容,后台自定义】
您需要登录后才可以回帖 登录 | 立即注册

本版积分规则

Archiver|手机版|小黑屋| 中国高清网 ( ICP备17007870号-2 ) |网站地图 

GMT+8, 2020-8-7 17:46 , Processed in 0.161647 second(s), 39 queries .

Powered by HDchina X3.4

Copyright 2017-2019©HDchina.All right reserved

返回顶部 联系我们