查看: 28|回复: 0

[爱情片] 江湖儿女 Ash.Is.Purest.White.2018.LiMiTED.720p.BluRay.x264-CADAVER 5.46GB

[复制链接]

 成长值: 6410

级别:资源管理组

注册时间
2017-10-20
最后登录
2020-8-7
听众
1
收听
0
主题
100960
蓝光币
179204 枚
贡献
21715 点
发表于 5 天前 | 显示全部楼层 |阅读模式

# m( a2 B9 R& W
; c4 S% F3 I# B% y8 d- A0 a# m: m
" B1 K* [% v% }$ a$ z
- z) y5 {* D( Z译  名 Ash is Purest White / Money & Love / 灰烬是最雪白的 / 金钱与恋爱
( N# e. J8 [# g+ N, K% n片  名 江湖后代" [# s& ~3 P, H3 \' t
年  代 2018
5 C- j& ?- d9 a! p产  地 中国大陆 / 法国 / 日本' t1 b: s+ M, ?# j
类  别 恋爱 / 犯罪6 O( o+ C0 b; Z$ R
语  言 汉语普通话 / 山西方言 / 湖北方言 / 重庆方言
6 o) t8 n# L4 |" A) m' y% p) W( K上映日期 2018-05-11(戛纳电影节) / 2018-09-21(中国大陆)
0 s# S9 N8 A. p4 k6 xIMDb评分  7.1/10 from 3046 users
  Y7 [3 J" j, T, f% h6 yIMDb链接  http://www.imdb.com/title/tt7298400
, v, R6 k6 \2 J) ?豆瓣评分 7.6/10 from 188286 users" J" b5 n' D. P; M" Y3 R# u4 A
豆瓣链接 https://movie.douban.com/subject/26972258/" W& ~' l; @$ Q' K! D' V6 e
片  长 137分钟(中国大陆)! M4 W* s, m; ?8 i
导  演 贾樟柯 Zhangke Jia
: j3 {) n/ @0 G- [8 k: }编  剧 贾樟柯 Zhangke Jia9 ?) [) v. J$ R% E  x+ _
主  演 赵涛 Tao Zhao
7 `& u/ u5 |2 Y% b      廖凡 Fan Liao
. u* P8 z. [8 W      徐峥 Zheng Xu
. ?1 H6 ~* e1 G! y      梁嘉艳 Casper Liang
1 C2 ?# X% e0 g, R* l" Q      刁亦男 Yi'nan Diao+ p5 h# _8 b* i0 m+ f5 J- X
      张一白 Yibai Zhang
( D7 G1 B$ x2 p; u      丁嘉丽 Jiali Ding
1 @0 |$ _  V  _. [) i. C# Z6 @      张译 Yi Zhang, i, i3 E: s5 k; o
      董子健 Zijian Dong. }6 Y- I) r/ V( ?0 V
      李宣 Xuan Li# p( i$ z0 R' w
      查娜 Chana. q/ P7 S4 K7 S$ I; \3 I3 i
      冯家妹 Jiamei Feng
' R9 A7 E* y: U( \, u      康亢 Kang Kang
1 y. g% b  G# A% }6 H  Y      张晓军 Xiaojun Zhang9 T% d& l2 F7 p! N
      柳敏 Min Liu% E5 \% ?+ L) L# M. V3 y9 @
      王谭 Tan Wang& q# p' k% B, c# i% D- Y
      原文倩 Wenqian Yuan
: e  P  X; x; V2 c# Y, j$ ^! N$ `: {; L* M; {

# O9 A9 C* P, a- q# o+ |8 z/ w/ B标  签 中国大陆 | 社会 | 人性 | 文艺 | 剧情 | 恋爱 | 2018 | 犯罪+ Y: K2 t- Y6 u+ ^

8 @% z0 ^9 }( o" q1 d7 ^' h简  介  * m& Y8 N% l7 i+ y" H. V* y
: T3 A: x: D2 a( r; Q! e1 X
  故事起头于2001年的山西大同,巧巧(赵涛 饰)和斌斌(廖凡 饰)相恋多年,巧巧一心希望可以和斌斌成家过平稳的生活,但斌斌身为当地的大佬,有着自己更高远的志向。一场意外中,斌斌遭人暗害危在旦夕,巧巧拿着斌斌私藏的手枪自告奋勇救了斌斌,自己却由于不法持枪而被判处了五年的禁锢。
  {% Q3 q9 M" H! j( t一晃眼五年曩昔,出狱后的巧巧发现全部天下都发生了天翻地覆的变化,唯一稳定的是她对斌斌真挚的豪情。巧巧奔走风尘寻觅斌斌的着落,但此时的斌斌早已经落空了昔日的锋铓,而且身旁已有了新的女友。身无分文的巧巧靠着自己的聪明摸爬滚打,终究为自己挣得了一片六合。
& D6 }+ h7 F8 e* d, `
% g8 X  z0 a6 [/ n7 X2 Y& [获奖情况  $ C3 [1 w3 B3 B; V, @$ N4 l. G
& ?8 t8 x' ^( l
  第71届戛纳电影节(2018)
8 q% N8 A5 C% ^6 J9 Z- Z  主比赛单元 金棕榈奖(提名) 贾樟柯' X6 K, m& A# E% x, A; b* j
( L0 L0 X9 k7 m: E7 T* G
  第55届台北金马影展(2018)
6 w; r5 I7 [/ C4 h  金马奖 最好女配角(提名) 赵涛
3 `! F( e- m- I6 D1 W9 k  o+ d* s5 t! U- A$ ^1 [8 r$ l/ e
  第38届香港电影金像奖(2019)
) x9 y2 n- `+ A# B! h  最好两岸华语电影(提名)' q1 O# ^  b3 c

& H2 s& G' j" C( Y  第13届亚洲电影大奖(2019)- M' q9 }6 A# V
  最好女配角(提名) 赵涛
- o/ x6 Z0 k  @9 b% H4 `  T4 ]8 m  最好编剧 贾樟柯
* u) z  Q# R/ p* u- z* D) Y6 U, P0 J2 B0 r& Z, e
  第5届豆瓣电影年度榜单(2018)
3 H9 Z8 n; ~7 j; b+ a8 c  评分最高的恋爱片(提名)  [7 k& z1 S  n% C
. U( F4 R  o+ n, l/ R/ {: r

  `! d% J, v1 j& z! B2 P) ], l8 M; ?; K# p% c) c1 v( x6 j3 o( k9 f
  1. Video, a* x3 ]4 |; B" F5 V# S
  2. ID                                       : 1
    % K# Y0 `# C  G
  3. Format                                   : AVC
    1 i& b8 k  Z* a; K% {
  4. Format/Info                              : Advanced Video Codec+ J3 U8 `- S0 a& o+ c$ g
  5. Format profile                           : High@L4.1" J8 a1 ?. r3 r- u
  6. Format settings                          : CABAC / 9 Ref Frames
    * }9 i& J* o6 T
  7. Format settings, CABAC                   : Yes& X/ w9 c" k; h5 c9 W
  8. Format settings, Reference frames        : 9 frames
    7 c7 g# K" X0 ~
  9. Codec ID                                 : V_MPEG4/ISO/AVC) }: O' s6 `# M) _6 q9 C
  10. Duration                                 : 2 h 15 min7 E) L! P/ E- c; h. D
  11. Bit rate                                 : 5 316 kb/s# K( b" t6 z2 W! I5 P. Z
  12. Width                                    : 1 280 pixels
    ) H5 v% B: |8 G# X# {
  13. Height                                   : 696 pixels
    0 S+ [4 S* q9 K; y8 L. w- |
  14. Display aspect ratio                     : 1.85:1
    . I( r- X% @$ U
  15. Frame rate mode                          : Constant( s6 [/ s, d' _; j% ?5 Q
  16. Frame rate                               : 24.000 FPS- U9 q: \$ J, A% x
  17. Color space                              : YUV) b# p+ b0 S7 N( K
  18. Chroma subsampling                       : 4:2:0
    3 @' I$ O. W# ~7 ~1 F
  19. Bit depth                                : 8 bits
    2 x+ y( B7 \0 _1 x8 E- G8 r( N
  20. Scan type                                : Progressive
    & A# ?/ z" L' {3 K# ~7 h
  21. Bits/(Pixel*Frame)                       : 0.2493 O3 o; O7 b3 E
  22. Stream size                              : 5.04 GiB (92%)
    2 U4 R# t2 r! O6 |3 e- j
  23. Writing library                          : x264 core 157 r2969 d4099dd
    $ b  ^0 P, @/ K3 [
  24. Encoding settings                        : cabac=1 / ref=9 / deblock=1:-3:-3 / analyse=0x3:0x133 / me=umh / subme=9 / psy=1 / psy_rd=1.00:0.00 / mixed_ref=1 / me_range=24 / chroma_me=1 / trellis=1 / 8x8dct=1 / cqm=0 / deadzone=21,11 / fast_pskip=0 / chroma_qp_offset=-2 / threads=22 / lookahead_threads=3 / sliced_threads=0 / nr=0 / decimate=1 / interlaced=0 / bluray_compat=0 / constrained_intra=0 / bframes=8 / b_pyramid=2 / b_adapt=2 / b_bias=0 / direct=3 / weightb=1 / open_gop=0 / weightp=2 / keyint=250 / keyint_min=24 / scenecut=40 / intra_refresh=0 / rc_lookahead=60 / rc=2pass / mbtree=1 / bitrate=5316 / ratetol=1.0 / qcomp=0.60 / qpmin=0 / qpmax=69 / qpstep=4 / cplxblur=20.0 / qblur=0.5 / vbv_maxrate=62500 / vbv_bufsize=78125 / nal_hrd=none / filler=0 / ip_ratio=1.40 / aq=1:1.00
    5 h: b( X- m, Y3 }7 i$ O- W
  25. Default                                  : Yes
    / W; ?; B) g2 X* f. i
  26. Forced                                   : No
    . u- l8 @6 W9 H3 A
  27. Audio
    " M* H6 U4 M" ~8 P
  28. ID                                       : 22 s; x/ U7 ]6 @* f( x1 t
  29. Format                                   : AC-3" I: y* B' {; T' D# O% D. w0 ^
  30. Format/Info                              : Audio Coding 38 j8 u7 \+ p) q/ N
  31. Commercial name                          : Dolby Digital3 q7 ~! r! o) A$ I% [: O
  32. Codec ID                                 : A_AC3
    % M/ F4 m; X7 ^  [9 q
  33. Duration                                 : 2 h 15 min
    ) e* N/ S. S" H
  34. Bit rate mode                            : Constant' `) B1 _5 z8 s% i, q
  35. Bit rate                                 : 448 kb/s
    - ^+ a. R* _7 S; D: [
  36. Channel(s)                               : 6 channels* u0 O  [/ }8 I# t
  37. Channel layout                           : L R C LFE Ls Rs
    6 J+ ?/ C2 |' x# `. }
  38. Sampling rate                            : 48.0 kHz
    " i, @- u* p6 e  L# Z, z1 p
  39. Frame rate                               : 31.250 FPS (1536 SPF)
    3 x! Y& ?, q8 \# C6 b$ h
  40. Bit depth                                : 16 bits
    - d4 v. F2 Q. E9 h) p9 o
  41. Compression mode                         : Lossy
    2 E$ d( ~: n$ S8 [' I
  42. Stream size                              : 435 MiB (8%); s% E+ A+ ~' E6 l6 b: R7 h# |0 t% a
  43. Language                                 : Chinese; R% G. T8 U; k! y. n
  44. Service kind                             : Complete Main
    * {$ B8 V- n# E1 r
  45. Default                                  : Yes8 ?4 h- z3 @+ c* z; |: c1 _
  46. Forced                                   : No
    - B  t- S  w) P
  47. Text
    5 q, b! ?: u% G/ i( k% x2 X9 E
  48. ID                                       : 3
    7 x% D7 G# t: j) j9 z
  49. Format                                   : UTF-83 Q* |( O7 U( f' [/ D  d/ e
  50. Codec ID                                 : S_TEXT/UTF8
    / L& e; [2 @+ C4 ~
  51. Codec ID/Info                            : UTF-8 Plain Text0 D4 i; U  r* C& d
  52. Duration                                 : 2 h 12 min
    ! g; K+ R2 Q6 ~
  53. Bit rate                                 : 25 b/s# S3 ~4 d' @% N8 k& A, r& F7 {
  54. Count of elements                        : 973
    & \! o8 S+ ^+ a6 j$ g) a
  55. Stream size                              : 25.1 KiB (0%)
    ( a! o; b0 i' L$ V2 h
  56. Language                                 : English2 Y! b" _$ A* R$ M& G0 D
  57. Default                                  : Yes' H: b6 t, I" @! z8 C0 Z
  58. Forced                                   : No
    2 _% M6 J% F$ r# v
  59. Menu
    0 i+ ]/ ~# h/ }2 ?8 E2 i3 C
  60. 00:00:00.000                             : en:Chapter 01
    5 K- S- V) {% `4 d/ p3 U# b+ g. l  Q
  61. 00:10:28.792                             : en:Chapter 02$ K3 [# \( a! ]0 N, j/ m
  62. 00:23:15.417                             : en:Chapter 030 V; {: H$ d) d6 Y+ [
  63. 00:33:37.708                             : en:Chapter 04
    + s3 P' a! V  Z
  64. 00:43:56.292                             : en:Chapter 05* P5 X3 q, ^: R1 L# N( _
  65. 00:51:37.000                             : en:Chapter 06* j3 \+ @# A9 u* d8 x
  66. 01:05:46.750                             : en:Chapter 07
    + K- ~% h& x# P$ \/ c3 A- h  S0 a
  67. 01:18:07.708                             : en:Chapter 08
    4 p8 Y# Z0 o6 S: R* ~: t6 k4 s
  68. 01:33:12.000                             : en:Chapter 09" z" k1 |8 B( e6 F% N$ ~, v2 n
  69. 01:45:06.292                             : en:Chapter 10
    4 f/ [1 e5 [# M+ @3 E
  70. 01:56:46.000                             : en:Chapter 110 c( b  [8 Q- t- n2 m
  71. 02:06:17.542                             : en:Chapter 12
复制代码

9 v( b2 ?  z8 m5 w5 {& F& p4 K+ u4 e; p
5 I0 u* i% c9 R+ I" A- r! h

, z$ b  ]# X3 f: _+ \! i, D' a' [  j. N

# O, b( |8 R/ k' o9 G6 v3 m" t
: h( X0 Z8 f8 @# C- _# B0 w" a3 j4 P, @: j' ]- V0 ?8 D
回复

使用道具 举报

懒得打字嘛,点击右侧快捷回复 【右侧内容,后台自定义】
您需要登录后才可以回帖 登录 | 立即注册

本版积分规则

Archiver|手机版|小黑屋| 中国高清网 ( ICP备17007870号-2 ) |网站地图 

GMT+8, 2020-8-7 17:38 , Processed in 0.160070 second(s), 39 queries .

Powered by HDchina X3.4

Copyright 2017-2019©HDchina.All right reserved

返回顶部 联系我们