查看: 2041|回复: 2

[REMUX.HEVC] 甘地传 Gandhi.1982.DISC2.2160p.BluRay.REMUX.HEVC.DTS-HD.MA.TrueHD.7.1.Atmos-FGT 48.16GB

[复制链接]
蓝光币
244062 枚
发表于 2020-7-18 23:12:14 | 显示全部楼层 |阅读模式
甘地传 Gandhi.1982.DISC2.2160p.BluRay.REMUX.HEVC.DTS-HD.MA.TrueHD.7.1.Atmos-FGT 48.16GB-1.jpeg


译  名 甘地传 / Richard Attenborough's Film: Gandhi / 甘地
片  名 Gandhi
年  代 1982
产  地 英国 / 印度 / 美国
类  别 剧情 / 列传 / 历史
语  言 英语
上映日期 1982-12-03
IMDb评分  8.0/10 from 214400 users
IMDb链接  https://www.imdb.com/title/tt0083987
豆瓣评分 8.6/10 from 28728 users
豆瓣链接 https://movie.douban.com/subject/1292238/
片  长 191 分钟
导  演 Richard Attenborough
编  剧 John Briley
主  演 本·金斯利 Ben Kingsley
       坎迪斯·伯根 Candice Bergen
       爱德华·福克斯 Edward Fox
       约翰·吉尔古德 John Gielgud
       约翰·米尔斯 John Mills
       马丁·辛 Martin Sheen
       丹尼尔·戴-刘易斯 Daniel Day-Lewis


标  签 列传 | 印度 | 甘地 | 历史 | 英国 | 人物 | 典范 | 1982

简  介   

  本片记录了印度圣雄甘地史诗般传奇巨大的平生。1893年,24岁的甘地(本?金斯利 Ben Kingsley 饰)受邀前往南非任律师职,决心在当地率领印度移民展开非暴力分歧作的抗议活动,并是以入狱。出狱后甘地回到祖国,在三八朗地域建立了高僧修行所,加入了国大党带领的印度自力活动,宣传非暴力分歧作的斗争理念。活动中甘地曾四次入狱;在其不懈尽力及国大党的率领下,印度自力终究提上议事日程,甘地也于1931年赴伦敦加入商讨自力的圆桌会议。但是随着自力的邻近,印度国内穆斯林与印度教群众之间的宗教冲突日益突出,甘地的非暴力分歧作理念又面临着更加严重的新应战……
  本片获1982年奥斯卡最好影片,最好导演(理查德?阿滕伯勒Richard Attenborough),最好男演员(本?金斯利),最好原创剧本,最好艺术指导,最好摄影,最好打扮设想和最好剪辑共八项大奖,并获奥斯卡最好化装,最好电影音乐和最好音效三项提名。

获奖情况  

  第55届奥斯卡金像奖(1983)
  最好影片 理查德·阿滕伯勒
  最好导演 理查德·阿滕伯勒
  最好男配角 本·金斯利
  最好原创剧本 约翰·布瑞雷
  最好摄影 罗尼·泰勒 / Billy Williams
  最好剪辑 John Bloom
  最好声响(提名) Robin O'Donoghue / Gerry Humphreys / Simon Kaye
  最好艺术指导 迈克尔·塞尔顿 / Robert W. Laing / 斯图尔特·克莱格
  最好打扮设想 John Mollo / Bhanu Athaiya
  最好化装(提名) Tom Smith
  最好原创配乐(提名) 拉威·香卡 / 乔治·芬顿
  1. Video
  2. ID                                       : 1
  3. ID in the original source medium         : 4113 (0x1011)
  4. Format                                   : HEVC
  5. Format/Info                              : High Efficiency Video Coding
  6. Format profile                           : Main [email protected]@High
  7. HDR format                               : SMPTE ST 2086, HDR10 compatible
  8. Codec ID                                 : V_MPEGH/ISO/HEVC
  9. Duration                                 : 1 h 39 min
  10. Bit rate                                 : 50.7 Mb/s
  11. Width                                    : 3 840 pixels
  12. Height                                   : 2 160 pixels
  13. Display aspect ratio                     : 16:9
  14. Frame rate mode                          : Constant
  15. Frame rate                               : 23.976 (24000/1001/189150) FPS
  16. Color space                              : YUV
  17. Chroma subsampling                       : 4:2:0 (Type 2)
  18. Bit depth                                : 10 bits
  19. Bits/(Pixel*Frame)                       : 0.255
  20. Stream size                              : 35.1 GiB (73%)
  21. Title                                    : Gandhi.1982.DISC2.2160p.BluRay.REMUX.HEVC.DTS-HD.MA.TrueHD.7.1.Atmos-FGT
  22. Language                                 : English
  23. Default                                  : No
  24. Forced                                   : No
  25. Color range                              : Limited
  26. Color primaries                          : BT.2020
  27. Transfer characteristics                 : PQ
  28. Matrix coefficients                      : BT.2020 non-constant
  29. Mastering display color primaries        : Display P3
  30. Mastering display luminance              : min: 0.0050 cd/m2, max: 4000 cd/m2
  31. Maximum Content Light Level              : 3991 cd/m2
  32. Maximum Frame-Average Light Level        : 240 cd/m2
  33. Original source medium                   : Blu-ray

  34. Audio #1
  35. ID                                       : 2
  36. ID in the original source medium         : 4352 (0x1100)
  37. Format                                   : MLP FBA 16-ch
  38. Format/Info                              : Meridian Lossless Packing FBA with 16-channel presentation
  39. Commercial name                          : Dolby TrueHD with Dolby Atmos
  40. Codec ID                                 : A_TRUEHD
  41. Duration                                 : 1 h 39 min
  42. Bit rate mode                            : Variable
  43. Bit rate                                 : 3 536 kb/s
  44. Maximum bit rate                         : 6 387 kb/s
  45. Channel(s)                               : 8 channels
  46. Channel layout                           : L R C LFE Ls Rs Lb Rb
  47. Sampling rate                            : 48.0 kHz
  48. Frame rate                               : 1 200.000 FPS (40 SPF)
  49. Compression mode                         : Lossless
  50. Stream size                              : 2.45 GiB (5%)
  51. Title                                    : Gandhi.1982.DISC2.2160p.BluRay.REMUX.HEVC.DTS-HD.MA.TrueHD.7.1.Atmos-FGT
  52. Language                                 : English
  53. Default                                  : Yes
  54. Forced                                   : No
  55. Original source medium                   : Blu-ray
  56. Number of dynamic objects                : 11
  57. Bed channel count                        : 1 channel
  58. Bed channel configuration                : LFE

  59. Audio #2
  60. ID                                       : 3
  61. Format                                   : DTS XLL
  62. Format/Info                              : Digital Theater Systems
  63. Commercial name                          : DTS-HD Master Audio
  64. Codec ID                                 : A_DTS
  65. Duration                                 : 1 h 39 min
  66. Bit rate mode                            : Variable
  67. Bit rate                                 : 3 910 kb/s
  68. Channel(s)                               : 8 channels
  69. Channel layout                           : C L R LFE Lb Rb Lss Rss
  70. Sampling rate                            : 48.0 kHz
  71. Frame rate                               : 93.750 FPS (512 SPF)
  72. Bit depth                                : 24 bits
  73. Compression mode                         : Lossless
  74. Stream size                              : 2.71 GiB (6%)
  75. Title                                    : Gandhi.1982.DISC2.2160p.BluRay.REMUX.HEVC.DTS-HD.MA.TrueHD.7.1.Atmos-FGT
  76. Language                                 : English
  77. Default                                  : No
  78. Forced                                   : No

  79. Audio #3
  80. ID                                       : 4
  81. ID in the original source medium         : 4352 (0x1100)
  82. Format                                   : AC-3
  83. Format/Info                              : Audio Coding 3
  84. Commercial name                          : Dolby Digital
  85. Codec ID                                 : A_AC3
  86. Duration                                 : 1 h 39 min
  87. Bit rate mode                            : Constant
  88. Bit rate                                 : 640 kb/s
  89. Channel(s)                               : 6 channels
  90. Channel layout                           : L R C LFE Ls Rs
  91. Sampling rate                            : 48.0 kHz
  92. Frame rate                               : 31.250 FPS (1536 SPF)
  93. Bit depth                                : 16 bits
  94. Compression mode                         : Lossy
  95. Stream size                              : 454 MiB (1%)
  96. Title                                    : Gandhi.1982.DISC2.2160p.BluRay.REMUX.HEVC.DTS-HD.MA.TrueHD.7.1.Atmos-FGT
  97. Language                                 : English
  98. Service kind                             : Complete Main
  99. Default                                  : No
  100. Forced                                   : No
  101. Original source medium                   : Blu-ray

  102. Audio #4
  103. ID                                       : 5
  104. ID in the original source medium         : 4354 (0x1102)
  105. Format                                   : DTS XLL
  106. Format/Info                              : Digital Theater Systems
  107. Commercial name                          : DTS-HD Master Audio
  108. Codec ID                                 : A_DTS
  109. Duration                                 : 1 h 39 min
  110. Bit rate mode                            : Variable
  111. Bit rate                                 : 1 558 kb/s
  112. Channel(s)                               : 2 channels
  113. Sampling rate                            : 48.0 kHz
  114. Frame rate                               : 93.750 FPS (512 SPF)
  115. Bit depth                                : 16 bits
  116. Compression mode                         : Lossless
  117. Stream size                              : 1.08 GiB (2%)
  118. Title                                    : Gandhi.1982.DISC2.2160p.BluRay.REMUX.HEVC.DTS-HD.MA.TrueHD.7.1.Atmos-FGT
  119. Language                                 : English
  120. Default                                  : No
  121. Forced                                   : No
  122. Original source medium                   : Blu-ray

  123. Audio #5
  124. ID                                       : 6
  125. ID in the original source medium         : 4355 (0x1103)
  126. Format                                   : DTS XLL
  127. Format/Info                              : Digital Theater Systems
  128. Commercial name                          : DTS-HD Master Audio
  129. Codec ID                                 : A_DTS
  130. Duration                                 : 1 h 39 min
  131. Bit rate mode                            : Variable
  132. Bit rate                                 : 2 086 kb/s
  133. Channel(s)                               : 6 channels
  134. Channel layout                           : C L R Ls Rs LFE
  135. Sampling rate                            : 48.0 kHz
  136. Frame rate                               : 93.750 FPS (512 SPF)
  137. Bit depth                                : 16 bits
  138. Compression mode                         : Lossless
  139. Stream size                              : 1.45 GiB (3%)
  140. Title                                    : Gandhi.1982.DISC2.2160p.BluRay.REMUX.HEVC.DTS-HD.MA.TrueHD.7.1.Atmos-FGT
  141. Language                                 : French
  142. Default                                  : No
  143. Forced                                   : No
  144. Original source medium                   : Blu-ray

  145. Audio #6
  146. ID                                       : 7
  147. ID in the original source medium         : 4356 (0x1104)
  148. Format                                   : DTS XLL
  149. Format/Info                              : Digital Theater Systems
  150. Commercial name                          : DTS-HD Master Audio
  151. Codec ID                                 : A_DTS
  152. Duration                                 : 1 h 39 min
  153. Bit rate mode                            : Variable
  154. Bit rate                                 : 2 087 kb/s
  155. Channel(s)                               : 6 channels
  156. Channel layout                           : C L R Ls Rs LFE
  157. Sampling rate                            : 48.0 kHz
  158. Frame rate                               : 93.750 FPS (512 SPF)
  159. Bit depth                                : 16 bits
  160. Compression mode                         : Lossless
  161. Stream size                              : 1.45 GiB (3%)
  162. Title                                    : Gandhi.1982.DISC2.2160p.BluRay.REMUX.HEVC.DTS-HD.MA.TrueHD.7.1.Atmos-FGT
  163. Language                                 : German
  164. Default                                  : No
  165. Forced                                   : No
  166. Original source medium                   : Blu-ray

  167. Audio #7
  168. ID                                       : 8
  169. ID in the original source medium         : 4357 (0x1105)
  170. Format                                   : DTS XLL
  171. Format/Info                              : Digital Theater Systems
  172. Commercial name                          : DTS-HD Master Audio
  173. Codec ID                                 : A_DTS
  174. Duration                                 : 1 h 39 min
  175. Bit rate mode                            : Variable
  176. Bit rate                                 : 2 080 kb/s
  177. Channel(s)                               : 6 channels
  178. Channel layout                           : C L R Ls Rs LFE
  179. Sampling rate                            : 48.0 kHz
  180. Frame rate                               : 93.750 FPS (512 SPF)
  181. Bit depth                                : 16 bits
  182. Compression mode                         : Lossless
  183. Stream size                              : 1.44 GiB (3%)
  184. Title                                    : Gandhi.1982.DISC2.2160p.BluRay.REMUX.HEVC.DTS-HD.MA.TrueHD.7.1.Atmos-FGT
  185. Language                                 : Italian
  186. Default                                  : No
  187. Forced                                   : No
  188. Original source medium                   : Blu-ray

  189. Audio #8
  190. ID                                       : 9
  191. ID in the original source medium         : 4358 (0x1106)
  192. Format                                   : AC-3
  193. Format/Info                              : Audio Coding 3
  194. Commercial name                          : Dolby Digital
  195. Codec ID                                 : A_AC3
  196. Duration                                 : 1 h 39 min
  197. Bit rate mode                            : Constant
  198. Bit rate                                 : 640 kb/s
  199. Channel(s)                               : 6 channels
  200. Channel layout                           : L R C LFE Ls Rs
  201. Sampling rate                            : 48.0 kHz
  202. Frame rate                               : 31.250 FPS (1536 SPF)
  203. Bit depth                                : 16 bits
  204. Compression mode                         : Lossy
  205. Stream size                              : 454 MiB (1%)
  206. Title                                    : Gandhi.1982.DISC2.2160p.BluRay.REMUX.HEVC.DTS-HD.MA.TrueHD.7.1.Atmos-FGT
  207. Language                                 : Portuguese
  208. Service kind                             : Complete Main
  209. Default                                  : No
  210. Forced                                   : No
  211. Original source medium                   : Blu-ray

  212. Audio #9
  213. ID                                       : 10
  214. ID in the original source medium         : 4359 (0x1107)
  215. Format                                   : AC-3
  216. Format/Info                              : Audio Coding 3
  217. Commercial name                          : Dolby Digital
  218. Codec ID                                 : A_AC3
  219. Duration                                 : 1 h 39 min
  220. Bit rate mode                            : Constant
  221. Bit rate                                 : 640 kb/s
  222. Channel(s)                               : 6 channels
  223. Channel layout                           : L R C LFE Ls Rs
  224. Sampling rate                            : 48.0 kHz
  225. Frame rate                               : 31.250 FPS (1536 SPF)
  226. Bit depth                                : 16 bits
  227. Compression mode                         : Lossy
  228. Stream size                              : 454 MiB (1%)
  229. Title                                    : Gandhi.1982.DISC2.2160p.BluRay.REMUX.HEVC.DTS-HD.MA.TrueHD.7.1.Atmos-FGT
  230. Language                                 : Spanish
  231. Service kind                             : Complete Main
  232. Default                                  : No
  233. Forced                                   : No
  234. Original source medium                   : Blu-ray

  235. Audio #10
  236. ID                                       : 11
  237. ID in the original source medium         : 4360 (0x1108)
  238. Format                                   : AC-3
  239. Format/Info                              : Audio Coding 3
  240. Commercial name                          : Dolby Digital
  241. Codec ID                                 : A_AC3
  242. Duration                                 : 1 h 39 min
  243. Bit rate mode                            : Constant
  244. Bit rate                                 : 640 kb/s
  245. Channel(s)                               : 6 channels
  246. Channel layout                           : L R C LFE Ls Rs
  247. Sampling rate                            : 48.0 kHz
  248. Frame rate                               : 31.250 FPS (1536 SPF)
  249. Bit depth                                : 16 bits
  250. Compression mode                         : Lossy
  251. Stream size                              : 454 MiB (1%)
  252. Title                                    : Gandhi.1982.DISC2.2160p.BluRay.REMUX.HEVC.DTS-HD.MA.TrueHD.7.1.Atmos-FGT
  253. Language                                 : Spanish
  254. Service kind                             : Complete Main
  255. Default                                  : No
  256. Forced                                   : No
  257. Original source medium                   : Blu-ray

  258. Audio #11
  259. ID                                       : 12
  260. ID in the original source medium         : 4361 (0x1109)
  261. Format                                   : AC-3
  262. Format/Info                              : Audio Coding 3
  263. Commercial name                          : Dolby Digital
  264. Codec ID                                 : A_AC3
  265. Duration                                 : 1 h 39 min
  266. Bit rate mode                            : Constant
  267. Bit rate                                 : 640 kb/s
  268. Channel(s)                               : 6 channels
  269. Channel layout                           : L R C LFE Ls Rs
  270. Sampling rate                            : 48.0 kHz
  271. Frame rate                               : 31.250 FPS (1536 SPF)
  272. Bit depth                                : 16 bits
  273. Compression mode                         : Lossy
  274. Stream size                              : 454 MiB (1%)
  275. Title                                    : Gandhi.1982.DISC2.2160p.BluRay.REMUX.HEVC.DTS-HD.MA.TrueHD.7.1.Atmos-FGT
  276. Language                                 : Thai
  277. Service kind                             : Complete Main
  278. Default                                  : No
  279. Forced                                   : No
  280. Original source medium                   : Blu-ray

  281. Text #1
  282. ID                                       : 13
  283. Format                                   : UTF-8
  284. Codec ID                                 : S_TEXT/UTF8
  285. Codec ID/Info                            : UTF-8 Plain Text
  286. Duration                                 : 1 h 29 min
  287. Bit rate                                 : 44 b/s
  288. Count of elements                        : 897
  289. Stream size                              : 29.2 KiB (0%)
  290. Title                                    : English-SRT
  291. Language                                 : English
  292. Default                                  : Yes
  293. Forced                                   : No

  294. Text #2
  295. ID                                       : 14
  296. ID in the original source medium         : 4768 (0x12A0)
  297. Format                                   : PGS
  298. Muxing mode                              : zlib
  299. Codec ID                                 : S_HDMV/PGS
  300. Codec ID/Info                            : Picture based subtitle format used on BDs/HD-DVDs
  301. Duration                                 : 1 h 32 min
  302. Bit rate                                 : 29.0 kb/s
  303. Count of elements                        : 2082
  304. Stream size                              : 19.3 MiB (0%)
  305. Title                                    : English-SDH-PGS
  306. Language                                 : English
  307. Default                                  : No
  308. Forced                                   : No
  309. Original source medium                   : Blu-ray

  310. Text #3
  311. ID                                       : 15
  312. ID in the original source medium         : 4769 (0x12A1)
  313. Format                                   : PGS
  314. Muxing mode                              : zlib
  315. Codec ID                                 : S_HDMV/PGS
  316. Codec ID/Info                            : Picture based subtitle format used on BDs/HD-DVDs
  317. Duration                                 : 1 h 29 min
  318. Bit rate                                 : 26.8 kb/s
  319. Count of elements                        : 1820
  320. Stream size                              : 17.1 MiB (0%)
  321. Title                                    : English-PGS
  322. Language                                 : English
  323. Default                                  : No
  324. Forced                                   : No
  325. Original source medium                   : Blu-ray

  326. Text #4
  327. ID                                       : 16
  328. ID in the original source medium         : 4770 (0x12A2)
  329. Format                                   : PGS
  330. Muxing mode                              : zlib
  331. Codec ID                                 : S_HDMV/PGS
  332. Codec ID/Info                            : Picture based subtitle format used on BDs/HD-DVDs
  333. Duration                                 : 1 h 32 min
  334. Bit rate                                 : 29.0 kb/s
  335. Count of elements                        : 2082
  336. Stream size                              : 19.3 MiB (0%)
  337. Title                                    : English-SDH-PGS
  338. Language                                 : English
  339. Default                                  : No
  340. Forced                                   : No
  341. Original source medium                   : Blu-ray

  342. Text #5
  343. ID                                       : 17
  344. ID in the original source medium         : 4771 (0x12A3)
  345. Format                                   : PGS
  346. Muxing mode                              : zlib
  347. Codec ID                                 : S_HDMV/PGS
  348. Codec ID/Info                            : Picture based subtitle format used on BDs/HD-DVDs
  349. Duration                                 : 1 h 29 min
  350. Bit rate                                 : 26.8 kb/s
  351. Count of elements                        : 1820
  352. Stream size                              : 17.1 MiB (0%)
  353. Title                                    : English-PGS
  354. Language                                 : English
  355. Default                                  : No
  356. Forced                                   : No
  357. Original source medium                   : Blu-ray

  358. Text #6
  359. ID                                       : 18
  360. ID in the original source medium         : 4772 (0x12A4)
  361. Format                                   : PGS
  362. Muxing mode                              : zlib
  363. Codec ID                                 : S_HDMV/PGS
  364. Codec ID/Info                            : Picture based subtitle format used on BDs/HD-DVDs
  365. Duration                                 : 1 h 29 min
  366. Bit rate                                 : 14.6 kb/s
  367. Count of elements                        : 1806
  368. Stream size                              : 9.27 MiB (0%)
  369. Title                                    : Arabic-PGS
  370. Language                                 : Arabic
  371. Default                                  : No
  372. Forced                                   : No
  373. Original source medium                   : Blu-ray

  374. Text #7
  375. ID                                       : 19
  376. ID in the original source medium         : 4773 (0x12A5)
  377. Format                                   : PGS
  378. Muxing mode                              : zlib
  379. Codec ID                                 : S_HDMV/PGS
  380. Codec ID/Info                            : Picture based subtitle format used on BDs/HD-DVDs
  381. Duration                                 : 1 h 29 min
  382. Bit rate                                 : 22.3 kb/s
  383. Count of elements                        : 1882
  384. Stream size                              : 14.2 MiB (0%)
  385. Title                                    : Chinese-PGS
  386. Language                                 : Chinese
  387. Default                                  : No
  388. Forced                                   : No
  389. Original source medium                   : Blu-ray

  390. Text #8
  391. ID                                       : 20
  392. ID in the original source medium         : 4774 (0x12A6)
  393. Format                                   : PGS
  394. Muxing mode                              : zlib
  395. Codec ID                                 : S_HDMV/PGS
  396. Codec ID/Info                            : Picture based subtitle format used on BDs/HD-DVDs
  397. Duration                                 : 1 h 29 min
  398. Bit rate                                 : 23.5 kb/s
  399. Count of elements                        : 1911
  400. Stream size                              : 14.9 MiB (0%)
  401. Title                                    : Chinese-PGS
  402. Language                                 : Chinese
  403. Default                                  : No
  404. Forced                                   : No
  405. Original source medium                   : Blu-ray

  406. Text #9
  407. ID                                       : 21
  408. ID in the original source medium         : 4775 (0x12A7)
  409. Format                                   : PGS
  410. Muxing mode                              : zlib
  411. Codec ID                                 : S_HDMV/PGS
  412. Codec ID/Info                            : Picture based subtitle format used on BDs/HD-DVDs
  413. Duration                                 : 1 h 29 min
  414. Bit rate                                 : 23.2 kb/s
  415. Count of elements                        : 1230
  416. Stream size                              : 14.8 MiB (0%)
  417. Title                                    : Danish-PGS
  418. Language                                 : Danish
  419. Default                                  : No
  420. Forced                                   : No
  421. Original source medium                   : Blu-ray

  422. Text #10
  423. ID                                       : 22
  424. ID in the original source medium         : 4776 (0x12A8)
  425. Format                                   : PGS
  426. Muxing mode                              : zlib
  427. Codec ID                                 : S_HDMV/PGS
  428. Codec ID/Info                            : Picture based subtitle format used on BDs/HD-DVDs
  429. Duration                                 : 1 h 36 min
  430. Bit rate                                 : 22.3 kb/s
  431. Count of elements                        : 1241
  432. Stream size                              : 15.4 MiB (0%)
  433. Title                                    : Dutch-PGS
  434. Language                                 : Dutch
  435. Default                                  : No
  436. Forced                                   : No
  437. Original source medium                   : Blu-ray

  438. Text #11
  439. ID                                       : 23
  440. ID in the original source medium         : 4777 (0x12A9)
  441. Format                                   : PGS
  442. Muxing mode                              : zlib
  443. Codec ID                                 : S_HDMV/PGS
  444. Codec ID/Info                            : Picture based subtitle format used on BDs/HD-DVDs
  445. Duration                                 : 1 h 29 min
  446. Bit rate                                 : 24.9 kb/s
  447. Count of elements                        : 1222
  448. Stream size                              : 15.9 MiB (0%)
  449. Title                                    : Finnish-PGS
  450. Language                                 : Finnish
  451. Default                                  : No
  452. Forced                                   : No
  453. Original source medium                   : Blu-ray

  454. Text #12
  455. ID                                       : 24
  456. ID in the original source medium         : 4778 (0x12AA)
  457. Format                                   : PGS
  458. Muxing mode                              : zlib
  459. Codec ID                                 : S_HDMV/PGS
  460. Codec ID/Info                            : Picture based subtitle format used on BDs/HD-DVDs
  461. Duration                                 : 1 h 36 min
  462. Bit rate                                 : 22.9 kb/s
  463. Count of elements                        : 1815
  464. Stream size                              : 15.8 MiB (0%)
  465. Title                                    : French-PGS
  466. Language                                 : French
  467. Default                                  : No
  468. Forced                                   : No
  469. Original source medium                   : Blu-ray

  470. Text #13
  471. ID                                       : 25
  472. ID in the original source medium         : 4778 (0x12AA)
  473. Format                                   : PGS
  474. Muxing mode                              : zlib
  475. Codec ID                                 : S_HDMV/PGS
  476. Codec ID/Info                            : Picture based subtitle format used on BDs/HD-DVDs
  477. Duration                                 : 1 h 26 min
  478. Bit rate                                 : 429 b/s
  479. Count of elements                        : 23
  480. Stream size                              : 272 KiB (0%)
  481. Title                                    : French-FORCED-PGS
  482. Language                                 : French
  483. Default                                  : No
  484. Forced                                   : No
  485. Original source medium                   : Blu-ray

  486. Text #14
  487. ID                                       : 26
  488. ID in the original source medium         : 4779 (0x12AB)
  489. Format                                   : PGS
  490. Muxing mode                              : zlib
  491. Codec ID                                 : S_HDMV/PGS
  492. Codec ID/Info                            : Picture based subtitle format used on BDs/HD-DVDs
  493. Duration                                 : 1 h 29 min
  494. Bit rate                                 : 32.9 kb/s
  495. Count of elements                        : 1801
  496. Stream size                              : 21.0 MiB (0%)
  497. Title                                    : German-PGS
  498. Language                                 : German
  499. Default                                  : No
  500. Forced                                   : No
  501. Original source medium                   : Blu-ray

  502. Text #15
  503. ID                                       : 27
  504. ID in the original source medium         : 4779 (0x12AB)
  505. Format                                   : PGS
  506. Muxing mode                              : zlib
  507. Codec ID                                 : S_HDMV/PGS
  508. Codec ID/Info                            : Picture based subtitle format used on BDs/HD-DVDs
  509. Duration                                 : 1 h 3 min
  510. Bit rate                                 : 468 b/s
  511. Count of elements                        : 21
  512. Stream size                              : 217 KiB (0%)
  513. Title                                    : German-FORCED-PGS
  514. Language                                 : German
  515. Default                                  : No
  516. Forced                                   : No
  517. Original source medium                   : Blu-ray

  518. Text #16
  519. ID                                       : 28
  520. ID in the original source medium         : 4780 (0x12AC)
  521. Format                                   : PGS
  522. Muxing mode                              : zlib
  523. Codec ID                                 : S_HDMV/PGS
  524. Codec ID/Info                            : Picture based subtitle format used on BDs/HD-DVDs
  525. Duration                                 : 1 h 29 min
  526. Bit rate                                 : 20.8 kb/s
  527. Count of elements                        : 1817
  528. Stream size                              : 13.3 MiB (0%)
  529. Title                                    : Greek-PGS
  530. Language                                 : Greek
  531. Default                                  : No
  532. Forced                                   : No
  533. Original source medium                   : Blu-ray

  534. Text #17
  535. ID                                       : 29
  536. ID in the original source medium         : 4781 (0x12AD)
  537. Format                                   : PGS
  538. Muxing mode                              : zlib
  539. Codec ID                                 : S_HDMV/PGS
  540. Codec ID/Info                            : Picture based subtitle format used on BDs/HD-DVDs
  541. Duration                                 : 1 h 29 min
  542. Bit rate                                 : 18.7 kb/s
  543. Count of elements                        : 1813
  544. Stream size                              : 11.9 MiB (0%)
  545. Title                                    : Hebrew-PGS
  546. Language                                 : Hebrew
  547. Default                                  : No
  548. Forced                                   : No
  549. Original source medium                   : Blu-ray

  550. Text #18
  551. ID                                       : 30
  552. ID in the original source medium         : 4782 (0x12AE)
  553. Format                                   : PGS
  554. Muxing mode                              : zlib
  555. Codec ID                                 : S_HDMV/PGS
  556. Codec ID/Info                            : Picture based subtitle format used on BDs/HD-DVDs
  557. Duration                                 : 1 h 36 min
  558. Bit rate                                 : 24.9 kb/s
  559. Count of elements                        : 1819
  560. Stream size                              : 17.2 MiB (0%)
  561. Title                                    : Icelandic-PGS
  562. Language                                 : Icelandic
  563. Default                                  : No
  564. Forced                                   : No
  565. Original source medium                   : Blu-ray

  566. Text #19
  567. ID                                       : 31
  568. ID in the original source medium         : 4783 (0x12AF)
  569. Format                                   : PGS
  570. Muxing mode                              : zlib
  571. Codec ID                                 : S_HDMV/PGS
  572. Codec ID/Info                            : Picture based subtitle format used on BDs/HD-DVDs
  573. Duration                                 : 1 h 36 min
  574. Bit rate                                 : 24.2 kb/s
  575. Count of elements                        : 1806
  576. Stream size                              : 16.7 MiB (0%)
  577. Title                                    : Italian-PGS
  578. Language                                 : Italian
  579. Default                                  : No
  580. Forced                                   : No
  581. Original source medium                   : Blu-ray

  582. Text #20
  583. ID                                       : 32
  584. ID in the original source medium         : 4783 (0x12AF)
  585. Format                                   : PGS
  586. Muxing mode                              : zlib
  587. Codec ID                                 : S_HDMV/PGS
  588. Codec ID/Info                            : Picture based subtitle format used on BDs/HD-DVDs
  589. Duration                                 : 1 h 26 min
  590. Bit rate                                 : 393 b/s
  591. Count of elements                        : 24
  592. Stream size                              : 249 KiB (0%)
  593. Title                                    : Italian-FORCED-PGS
  594. Language                                 : Italian
  595. Default                                  : No
  596. Forced                                   : No
  597. Original source medium                   : Blu-ray

  598. Text #21
  599. ID                                       : 33
  600. ID in the original source medium         : 4784 (0x12B0)
  601. Format                                   : PGS
  602. Muxing mode                              : zlib
  603. Codec ID                                 : S_HDMV/PGS
  604. Codec ID/Info                            : Picture based subtitle format used on BDs/HD-DVDs
  605. Duration                                 : 1 h 29 min
  606. Bit rate                                 : 17.5 kb/s
  607. Count of elements                        : 1815
  608. Stream size                              : 11.2 MiB (0%)
  609. Title                                    : Korean-PGS
  610. Language                                 : Korean
  611. Default                                  : No
  612. Forced                                   : No
  613. Original source medium                   : Blu-ray

  614. Text #22
  615. ID                                       : 34
  616. ID in the original source medium         : 4785 (0x12B1)
  617. Format                                   : PGS
  618. Muxing mode                              : zlib
  619. Codec ID                                 : S_HDMV/PGS
  620. Codec ID/Info                            : Picture based subtitle format used on BDs/HD-DVDs
  621. Duration                                 : 1 h 29 min
  622. Bit rate                                 : 22.3 kb/s
  623. Count of elements                        : 1226
  624. Stream size                              : 14.2 MiB (0%)
  625. Title                                    : Norwegian-PGS
  626. Language                                 : Norwegian
  627. Default                                  : No
  628. Forced                                   : No
  629. Original source medium                   : Blu-ray

  630. Text #23
  631. ID                                       : 35
  632. ID in the original source medium         : 4786 (0x12B2)
  633. Format                                   : PGS
  634. Muxing mode                              : zlib
  635. Codec ID                                 : S_HDMV/PGS
  636. Codec ID/Info                            : Picture based subtitle format used on BDs/HD-DVDs
  637. Duration                                 : 1 h 29 min
  638. Bit rate                                 : 24.8 kb/s
  639. Count of elements                        : 1827
  640. Stream size                              : 15.8 MiB (0%)
  641. Title                                    : Portuguese-PGS
  642. Language                                 : Portuguese
  643. Default                                  : No
  644. Forced                                   : No
  645. Original source medium                   : Blu-ray

  646. Text #24
  647. ID                                       : 36
  648. ID in the original source medium         : 4786 (0x12B2)
  649. Format                                   : PGS
  650. Muxing mode                              : zlib
  651. Codec ID                                 : S_HDMV/PGS
  652. Codec ID/Info                            : Picture based subtitle format used on BDs/HD-DVDs
  653. Duration                                 : 2 s 607 ms
  654. Bit rate                                 : 25.3 kb/s
  655. Count of elements                        : 2
  656. Stream size                              : 8.06 KiB (0%)
  657. Title                                    : Portuguese-FORCED-PGS
  658. Language                                 : Portuguese
  659. Default                                  : No
  660. Forced                                   : No
  661. Original source medium                   : Blu-ray

  662. Text #25
  663. ID                                       : 37
  664. ID in the original source medium         : 4787 (0x12B3)
  665. Format                                   : PGS
  666. Muxing mode                              : zlib
  667. Codec ID                                 : S_HDMV/PGS
  668. Codec ID/Info                            : Picture based subtitle format used on BDs/HD-DVDs
  669. Duration                                 : 1 h 29 min
  670. Bit rate                                 : 28.1 kb/s
  671. Count of elements                        : 1800
  672. Stream size                              : 17.9 MiB (0%)
  673. Title                                    : Portuguese-PGS
  674. Language                                 : Portuguese
  675. Default                                  : No
  676. Forced                                   : No
  677. Original source medium                   : Blu-ray

  678. Text #26
  679. ID                                       : 38
  680. ID in the original source medium         : 4788 (0x12B4)
  681. Format                                   : PGS
  682. Muxing mode                              : zlib
  683. Codec ID                                 : S_HDMV/PGS
  684. Codec ID/Info                            : Picture based subtitle format used on BDs/HD-DVDs
  685. Duration                                 : 1 h 36 min
  686. Bit rate                                 : 22.5 kb/s
  687. Count of elements                        : 1809
  688. Stream size                              : 15.5 MiB (0%)
  689. Title                                    : Spanish-PGS
  690. Language                                 : Spanish
  691. Default                                  : No
  692. Forced                                   : No
  693. Original source medium                   : Blu-ray

  694. Text #27
  695. ID                                       : 39
  696. ID in the original source medium         : 4788 (0x12B4)
  697. Format                                   : PGS
  698. Muxing mode                              : zlib
  699. Codec ID                                 : S_HDMV/PGS
  700. Codec ID/Info                            : Picture based subtitle format used on BDs/HD-DVDs
  701. Duration                                 : 1 h 26 min
  702. Bit rate                                 : 347 b/s
  703. Count of elements                        : 21
  704. Stream size                              : 220 KiB (0%)
  705. Title                                    : Spanish-FORCED-PGS
  706. Language                                 : Spanish
  707. Default                                  : No
  708. Forced                                   : No
  709. Original source medium                   : Blu-ray

  710. Text #28
  711. ID                                       : 40
  712. ID in the original source medium         : 4789 (0x12B5)
  713. Format                                   : PGS
  714. Muxing mode                              : zlib
  715. Codec ID                                 : S_HDMV/PGS
  716. Codec ID/Info                            : Picture based subtitle format used on BDs/HD-DVDs
  717. Duration                                 : 1 h 29 min
  718. Bit rate                                 : 23.0 kb/s
  719. Count of elements                        : 1879
  720. Stream size                              : 14.7 MiB (0%)
  721. Title                                    : Spanish-PGS
  722. Language                                 : Spanish
  723. Default                                  : No
  724. Forced                                   : No
  725. Original source medium                   : Blu-ray

  726. Text #29
  727. ID                                       : 41
  728. ID in the original source medium         : 4789 (0x12B5)
  729. Format                                   : PGS
  730. Muxing mode                              : zlib
  731. Codec ID                                 : S_HDMV/PGS
  732. Codec ID/Info                            : Picture based subtitle format used on BDs/HD-DVDs
  733. Duration                                 : 29 min 45 s
  734. Bit rate                                 : 260 b/s
  735. Count of elements                        : 8
  736. Stream size                              : 56.8 KiB (0%)
  737. Title                                    : Spanish-FORCED-PGS
  738. Language                                 : Spanish
  739. Default                                  : No
  740. Forced                                   : No
  741. Original source medium                   : Blu-ray

  742. Text #30
  743. ID                                       : 42
  744. ID in the original source medium         : 4790 (0x12B6)
  745. Format                                   : PGS
  746. Muxing mode                              : zlib
  747. Codec ID                                 : S_HDMV/PGS
  748. Codec ID/Info                            : Picture based subtitle format used on BDs/HD-DVDs
  749. Duration                                 : 1 h 36 min
  750. Bit rate                                 : 21.2 kb/s
  751. Count of elements                        : 1230
  752. Stream size                              : 14.6 MiB (0%)
  753. Title                                    : Swedish-PGS
  754. Language                                 : Swedish
  755. Default                                  : No
  756. Forced                                   : No
  757. Original source medium                   : Blu-ray

  758. Text #31
  759. ID                                       : 43
  760. ID in the original source medium         : 4791 (0x12B7)
  761. Format                                   : PGS
  762. Muxing mode                              : zlib
  763. Codec ID                                 : S_HDMV/PGS
  764. Codec ID/Info                            : Picture based subtitle format used on BDs/HD-DVDs
  765. Duration                                 : 1 h 29 min
  766. Bit rate                                 : 23.5 kb/s
  767. Count of elements                        : 1804
  768. Stream size                              : 15.0 MiB (0%)
  769. Title                                    : Thai-PGS
  770. Language                                 : Thai
  771. Default                                  : No
  772. Forced                                   : No
  773. Original source medium                   : Blu-ray

  774. Text #32
  775. ID                                       : 44
  776. ID in the original source medium         : 4791 (0x12B7)
  777. Format                                   : PGS
  778. Muxing mode                              : zlib
  779. Codec ID                                 : S_HDMV/PGS
  780. Codec ID/Info                            : Picture based subtitle format used on BDs/HD-DVDs
  781. Duration                                 : 57 min 55 s
  782. Bit rate                                 : 259 b/s
  783. Count of elements                        : 14
  784. Stream size                              : 110 KiB (0%)
  785. Title                                    : Thai-FORCED-PGS
  786. Language                                 : Thai
  787. Default                                  : No
  788. Forced                                   : No
  789. Original source medium                   : Blu-ray

  790. Text #33
  791. ID                                       : 45
  792. ID in the original source medium         : 4792 (0x12B8)
  793. Format                                   : PGS
  794. Muxing mode                              : zlib
  795. Codec ID                                 : S_HDMV/PGS
  796. Codec ID/Info                            : Picture based subtitle format used on BDs/HD-DVDs
  797. Duration                                 : 1 h 36 min
  798. Bit rate                                 : 22.3 kb/s
  799. Count of elements                        : 1792
  800. Stream size                              : 15.4 MiB (0%)
  801. Title                                    : Turkish-PGS
  802. Language                                 : Turkish
  803. Default                                  : No
  804. Forced                                   : No
  805. Original source medium                   : Blu-ray

  806. Menu
  807. 00:00:00.000                             : en:Chapter 01
  808. 00:09:15.346                             : en:Chapter 02
  809. 00:12:48.601                             : en:Chapter 03
  810. 00:23:52.180                             : en:Chapter 04
  811. 00:26:39.806                             : en:Chapter 05
  812. 00:33:59.328                             : en:Chapter 06
  813. 00:42:33.467                             : en:Chapter 07
  814. 00:48:51.803                             : en:Chapter 08
  815. 00:53:44.095                             : en:Chapter 09
  816. 00:59:08.711                             : en:Chapter 10
  817. 01:04:54.265                             : en:Chapter 11
  818. 01:09:27.663                             : en:Chapter 12
  819. 01:10:38.984                             : en:Chapter 13
  820. 01:15:56.969                             : en:Chapter 14
  821. 01:22:17.974                             : en:Chapter 15
  822. 01:30:02.563                             : en:Chapter 16
复制代码








本帖隐藏的下载地址需要VIP会员才可阅读,您需要升级才可阅读,点击这里升级VIP
回复

使用道具 举报

蓝光币
0 枚
QQ
发表于 2023-1-20 22:52:52 | 显示全部楼层
楼主发贴辛苦了,谢谢楼主分享!我觉得中国高清电影网是注册对了!
回复

使用道具 举报

蓝光币
2332 枚
发表于 2023-1-21 21:10:25 | 显示全部楼层

我看不错噢 谢谢楼主!中国高清电影网越来越好!
回复

使用道具 举报

懒得打字嘛,点击右侧快捷回复 【右侧内容,后台自定义】
您需要登录后才可以回帖 登录 | 立即注册

本版积分规则

Archiver|手机版|小黑屋| 中国高清网 |网站地图 

GMT+8, 2023-1-30 00:59 , Processed in 0.168359 second(s), 28 queries .

Powered by HDchina X3.4

Copyright 2017-2019©HDchina.All right reserved

返回顶部 联系我们