查看: 393|回复: 4

[动作片] 特种部队的崛起 Outpost.Rise.Of.The.Spetsnaz.2013.1080p.BluRay.x264.DTS-FGT 6.55GB

[复制链接]

已抛锚 成长值: 11955

级别:资源管理组

注册时间
2017-10-20
最后登录
2022-5-9
听众
1
收听
0
主题
108287
蓝光币
241495 枚
贡献
21715 点
发表于 2020-7-18 13:28:45 | 显示全部楼层 |阅读模式
特种军队的突起 Outpost.Rise.Of.The.Spetsnaz.2013.1080p.BluRay.x264.DTS-FGT 6.55GB-1.jpg


译  名 特种军队的突起 / Outpost - Operation Spetsnaz / 前哨:特种军队 / 纳粹大战僵尸
片  名 Outpost: Rise of the Spetsnaz
年  代 2013
产  地 英国
类  别 行动 / 科幻 / 可骇
语  言 英语
上映日期 2013-06-27(英国)
IMDb评分  5.1/10 from 2075 users
IMDb链接  https://www.imdb.com/title/tt2241403
豆瓣评分 5.3/10 from 767 users
豆瓣链接 https://movie.douban.com/subject/25744381/
片  长 87分钟
导  演 Kieran Parker
编  剧 Rae Brunton
主  演 Bryan Larkin
       伊万·卡马拉斯 Iván Kamarás
       Michael McKell
       维利贝·托皮奇 Velibor Topic
       Laurence Possa
       Ben Lambert
       Alec Utgoff
       Vince Docherty
       Gareth Morrison
       Leo Horsfield
       Vivien Taylor
       Jamie Campbell
       Francis Jamie
       James McCreadie
       Ryan McHenry


标  签 行动 | 暴力 | 血腥 | 英国 | 丧尸 | 僵尸 | 2013 | 科幻

简  介


  In this third installment of the hit Nazi Zombie action horror movie, Outpost: Rise Of The Spetnaz, we discover the horrifying origins of these supernatural soldiers and see them in ferocious gladiatorial battle against the most ruthless and notorious of all military special forces: the Russian Spetsnaz.
  1. Video
  2. ID                                       : 1
  3. Format                                   : AVC
  4. Format/Info                              : Advanced Video Codec
  5. Format profile                           : [email protected]
  6. Format settings, CABAC                   : Yes
  7. Format settings, ReFrames                : 5 frames
  8. Codec ID                                 : V_MPEG4/ISO/AVC
  9. Duration                                 : 1h 27mn
  10. Bit rate                                 : 9 266 Kbps
  11. Width                                    : 1 920 pixels
  12. Height                                   : 800 pixels
  13. Display aspect ratio                     : 2.40:1
  14. Frame rate mode                          : Constant
  15. Frame rate                               : 23.976 (24000/1001) fps
  16. Color space                              : YUV
  17. Chroma subsampling                       : 4:2:0
  18. Bit depth                                : 8 bits
  19. Scan type                                : Progressive
  20. Bits/(Pixel*Frame)                       : 0.252
  21. Stream size                              : 5.50 GiB (84%)
  22. Writing library                          : x264 core 138 r2358 9e941d1
  23. Encoding settings                        : cabac=1 / ref=5 / deblock=1:0:0 / analyse=0x3:0x133 / me=umh / subme=7 / psy=1 / psy_rd=1.00:0.00 / mixed_ref=1 / me_range=16 / chroma_me=1 / trellis=1 / 8x8dct=1 / cqm=0 / deadzone=21,11 / fast_pskip=0 / chroma_qp_offset=-2 / threads=18 / lookahead_threads=3 / sliced_threads=0 / nr=0 / decimate=1 / interlaced=0 / bluray_compat=0 / constrained_intra=0 / bframes=3 / b_pyramid=2 / b_adapt=1 / b_bias=0 / direct=1 / weightb=1 / open_gop=0 / weightp=2 / keyint=240 / keyint_min=23 / scenecut=40 / intra_refresh=0 / rc_lookahead=40 / rc=2pass / mbtree=1 / bitrate=9266 / ratetol=1.0 / qcomp=0.60 / qpmin=10 / qpmax=69 / qpstep=4 / cplxblur=20.0 / qblur=0.5 / ip_ratio=1.40 / aq=1:1.00
  24. Language                                 : English
  25. Default                                  : No
  26. Forced                                   : No

  27. Audio
  28. ID                                       : 2
  29. Format                                   : DTS
  30. Format/Info                              : Digital Theater Systems
  31. Mode                                     : 16
  32. Format settings, Endianness              : Big
  33. Codec ID                                 : A_DTS
  34. Duration                                 : 1h 27mn
  35. Bit rate mode                            : Constant
  36. Bit rate                                 : 1 509 Kbps
  37. Channel(s)                               : 6 channels
  38. Channel positions                        : Front: L C R, Side: L R, LFE
  39. Sampling rate                            : 48.0 KHz
  40. Frame rate                               : 93.750 fps (512 spf)
  41. Bit depth                                : 16 bits
  42. Compression mode                         : Lossy
  43. Stream size                              : 940 MiB (14%)
  44. Language                                 : English
  45. Default                                  : No
  46. Forced                                   : No

  47. Text
  48. ID                                       : 3
  49. Format                                   : UTF-8
  50. Codec ID                                 : S_TEXT/UTF8
  51. Codec ID/Info                            : UTF-8 Plain Text
  52. Language                                 : English
  53. Default                                  : No
  54. Forced                                   : No

  55. Menu
  56. 00:00:00.000                             : en:00:00:00.000
  57. 00:08:13.951                             : en:00:08:13.951
  58. 00:15:02.109                             : en:00:15:02.109
  59. 00:22:32.476                             : en:00:22:32.476
  60. 00:28:02.806                             : en:00:28:02.806
  61. 00:34:42.747                             : en:00:34:42.747
  62. 00:43:55.507                             : en:00:43:55.507
  63. 00:49:58.829                             : en:00:49:58.829
  64. 00:56:54.202                             : en:00:56:54.202
  65. 01:03:42.527                             : en:01:03:42.527
  66. 01:10:49.578                             : en:01:10:49.578
  67. 01:19:21.381                             : en:01:19:21.381
复制代码

特种军队的突起 Outpost.Rise.Of.The.Spetsnaz.2013.1080p.BluRay.x264.DTS-FGT 6.55GB-2.png
特种军队的突起 Outpost.Rise.Of.The.Spetsnaz.2013.1080p.BluRay.x264.DTS-FGT 6.55GB-3.png
特种军队的突起 Outpost.Rise.Of.The.Spetsnaz.2013.1080p.BluRay.x264.DTS-FGT 6.55GB-4.png
特种军队的突起 Outpost.Rise.Of.The.Spetsnaz.2013.1080p.BluRay.x264.DTS-FGT 6.55GB-5.png
特种军队的突起 Outpost.Rise.Of.The.Spetsnaz.2013.1080p.BluRay.x264.DTS-FGT 6.55GB-6.png
特种军队的突起 Outpost.Rise.Of.The.Spetsnaz.2013.1080p.BluRay.x264.DTS-FGT 6.55GB-7.png







Outpost.Rise.Of.The.Spetsnaz.2013.1080p.BluRay.x264.DTS-FGT.torrent (66.12 KB, 下载次数: 18, 售价: 2 枚蓝光币)
回复

使用道具 举报

级别:群众演员 Lv.3

注册时间
2020-5-17
最后登录
2021-2-24
听众
4
收听
0
主题
0
蓝光币
277 枚
贡献
0 点
发表于 2020-7-18 15:57:30 | 显示全部楼层
楼主发贴辛苦了,谢谢楼主分享!我觉得中国高清电影网是注册对了!
回复

使用道具 举报

已抛锚 成长值: 6105

级别:功成名就 Lv.9

注册时间
2020-3-1
最后登录
2021-2-24
听众
7
收听
0
主题
0
蓝光币
725 枚
贡献
0 点
发表于 2020-7-18 16:36:12 | 显示全部楼层
楼主发贴辛苦了,谢谢楼主分享!我觉得中国高清电影网是注册对了!
回复

使用道具 举报

级别:普通观众 Lv.2

注册时间
2019-6-28
最后登录
2021-1-29
听众
5
收听
0
主题
0
蓝光币
20 枚
贡献
0 点
发表于 2020-7-20 09:48:40 | 显示全部楼层

楼主,大恩不言谢了!中国高清电影网是最棒的!
回复

使用道具 举报

级别:专业龙套 Lv.4

注册时间
2018-3-22
最后登录
2022-5-16
听众
15
收听
0
主题
0
蓝光币
59 枚
贡献
0 点
QQ
发表于 2022-5-5 16:36:58 | 显示全部楼层

这东西我收了!谢谢楼主!中国高清电影网真好!
回复

使用道具 举报

懒得打字嘛,点击右侧快捷回复 【右侧内容,后台自定义】
您需要登录后才可以回帖 登录 | 立即注册

本版积分规则

Archiver|手机版|小黑屋| 中国高清网 |网站地图 

GMT+8, 2022-5-18 04:28 , Processed in 0.104101 second(s), 29 queries .

Powered by HDchina X3.4

Copyright 2017-2019©HDchina.All right reserved

返回顶部 联系我们