查看: 328|回复: 2

[动作片] 刑房 Grindhouse.2007.1080p.BluRay.x264.DD5.1-FGT 15.46GB

[复制链接]

已抛锚 成长值: 11955

级别:资源管理组

注册时间
2017-10-20
最后登录
2022-5-9
听众
1
收听
0
主题
108287
蓝光币
241495 枚
贡献
21715 点
发表于 2020-7-17 22:51:48 | 显示全部楼层 |阅读模式
刑房 Grindhouse.2007.1080p.BluRay.x264.DD5.1-FGT 15.46GB-1.jpg

译  名 刑房 / Grind House / 疯人锯院 / 磨坊电影
片  名 Grindhouse
年  代 2007
产  地 美国
类  别 行动 / 惊悚 / 可骇
语  言 英语 / 西班牙语
上映日期 2007-04-06(美国)
IMDb评分  7.5/10 from 175671 users
IMDb链接  https://www.imdb.com/title/tt0462322
豆瓣评分 7.8/10 from 27392 users
豆瓣链接 https://movie.douban.com/subject/1482090/
片  长 191 分钟
导  演 Robert Rodriguez / Eli Roth / Quentin Tarantino / Edgar Wright / Rob Zombie
编  剧 Robert Rodriguez / Rob Zombie / Edgar Wright / Jeff Rendell / Eli Roth / Quentin Tarantino
主  演 Kurt Russell
       Rosario Dawson
       Rose McGowan
       Marley Shelton
       Freddy Rodríguez
       Josh Brolin
       Bruce Willis
       Quentin Tarantino
       Nicolas Cage


标  签 CULT | 美国 | QuentinTarantino | 惊悚 | 昆汀·塔伦蒂诺 | 犯罪 | 昆汀 | 可骇

简  介


  本片由两部电影组成,别离为昆汀·塔伦蒂诺(Quentin Tarantino)所拍的《灭亡证据》,以及罗伯特·罗德里格兹(Robert Rodriguez)所拍的《可骇星球》。
  《灭亡证据》报告了一个变态杀手麦克(库尔特·拉塞尔 Kurt Russell 饰)用他的爱车谋杀四个美男的故事。他出没于公路边的酒吧,寻觅猎物获得信赖,然后在公路上经过车祸的方式残暴的杀戮她们,同时自己也身负重伤,这就是他满足自己嗜血愿望的方式。这一次,他又盯上了四个方针,但这一次,他的直觉失灵了,这个恶贯充斥的杀人魔王终究碰到了他生射中最初的克星。
  在《可骇星球》里,小镇被嗜血的损失包围,一种希奇的病毒敏捷沾染开来。切瑞(罗丝·麦高恩 Rose McGowan 饰)是一个脱衣舞女郎,她遭到损失的攻击落空了右腿。男友在她的残肢上装上了一挺机关枪,为了保存,也为了庇护所爱的人,切瑞必须成为豪杰。
  1. Video
  2. ID                                       : 1
  3. Format                                   : AVC
  4. Format/Info                              : Advanced Video Codec
  5. Format profile                           : [email protected]
  6. Format settings                          : CABAC / 5 Ref Frames
  7. Format settings, CABAC                   : Yes
  8. Format settings, Reference frames        : 5 frames
  9. Codec ID                                 : V_MPEG4/ISO/AVC
  10. Duration                                 : 3 h 11 min
  11. Bit rate                                 : 10.7 Mb/s
  12. Width                                    : 1 920 pixels
  13. Height                                   : 824 pixels
  14. Display aspect ratio                     : 2.35:1
  15. Frame rate mode                          : Constant
  16. Frame rate                               : 23.976 (23976/1000/189150) FPS
  17. Color space                              : YUV
  18. Chroma subsampling                       : 4:2:0
  19. Bit depth                                : 8 bits
  20. Scan type                                : Progressive
  21. Bits/(Pixel*Frame)                       : 0.282
  22. Stream size                              : 14.3 GiB (92%)
  23. Writing library                          : x264 core 114 r1913 5fd3dce
  24. Encoding settings                        : cabac=1 / ref=5 / deblock=1:0:0 / analyse=0x3:0x113 / me=umh / subme=7 / psy=1 / psy_rd=1.00:0.00 / mixed_ref=1 / me_range=16 / chroma_me=0 / trellis=1 / 8x8dct=1 / cqm=0 / deadzone=21,11 / fast_pskip=0 / chroma_qp_offset=-2 / threads=6 / sliced_threads=0 / nr=0 / decimate=1 / interlaced=0 / constrained_intra=0 / bframes=3 / b_pyramid=2 / b_adapt=1 / b_bias=0 / direct=1 / weightb=1 / open_gop=0 / weightp=2 / keyint=250 / keyint_min=23 / scenecut=40 / intra_refresh=0 / rc_lookahead=40 / rc=crf / mbtree=1 / crf=20.0 / qcomp=0.60 / qpmin=0 / qpmax=69 / qpstep=4 / ip_ratio=1.40 / aq=1:1.00
  25. Language                                 : English
  26. Default                                  : Yes
  27. Forced                                   : No

  28. Audio
  29. ID                                       : 2
  30. Format                                   : AC-3
  31. Format/Info                              : Audio Coding 3
  32. Commercial name                          : Dolby Digital
  33. Codec ID                                 : A_AC3
  34. Duration                                 : 3 h 11 min
  35. Bit rate mode                            : Constant
  36. Bit rate                                 : 640 kb/s
  37. Channel(s)                               : 6 channels
  38. Channel layout                           : L R C LFE Ls Rs
  39. Sampling rate                            : 48.0 kHz
  40. Frame rate                               : 31.250 FPS (1536 SPF)
  41. Compression mode                         : Lossy
  42. Stream size                              : 876 MiB (6%)
  43. Language                                 : English
  44. Service kind                             : Complete Main
  45. Default                                  : Yes
  46. Forced                                   : No

  47. Text
  48. ID                                       : 3
  49. Format                                   : UTF-8
  50. Codec ID                                 : S_TEXT/UTF8
  51. Codec ID/Info                            : UTF-8 Plain Text
  52. Language                                 : English
  53. Default                                  : Yes
  54. Forced                                   : No
复制代码

224756giaqigci8toc090c.png 刑房 Grindhouse.2007.1080p.BluRay.x264.DD5.1-FGT 15.46GB-2.png 刑房 Grindhouse.2007.1080p.BluRay.x264.DD5.1-FGT 15.46GB-3.png 刑房 Grindhouse.2007.1080p.BluRay.x264.DD5.1-FGT 15.46GB-4.png 刑房 Grindhouse.2007.1080p.BluRay.x264.DD5.1-FGT 15.46GB-5.png







Grindhouse.2007.1080p.BluRay.x264.DD5.1-FGT.torrent (77.89 KB, 下载次数: 55, 售价: 2 枚蓝光币)
回复

使用道具 举报

已抛锚 成长值: 6105

级别:功成名就 Lv.9

注册时间
2020-3-1
最后登录
2021-2-24
听众
7
收听
0
主题
0
蓝光币
725 枚
贡献
0 点
发表于 2020-7-18 16:57:49 | 显示全部楼层
楼主发贴辛苦了,谢谢楼主分享!我觉得中国高清电影网是注册对了!
回复

使用道具 举报

级别:专业龙套 Lv.4

注册时间
2018-3-22
最后登录
2022-5-16
听众
15
收听
0
主题
0
蓝光币
59 枚
贡献
0 点
QQ
发表于 2022-5-5 16:26:10 | 显示全部楼层

我看不错噢 谢谢楼主!中国高清电影网越来越好!
回复

使用道具 举报

懒得打字嘛,点击右侧快捷回复 【右侧内容,后台自定义】
您需要登录后才可以回帖 登录 | 立即注册

本版积分规则

Archiver|手机版|小黑屋| 中国高清网 |网站地图 

GMT+8, 2022-5-18 05:12 , Processed in 0.103447 second(s), 29 queries .

Powered by HDchina X3.4

Copyright 2017-2019©HDchina.All right reserved

返回顶部 联系我们