查看: 128|回复: 2

[剧情片] 硫磺岛的来信/来自硫磺岛的信 Letters.From.Iwo.Jima.2006.JAPANESE.1080p.BluRay.x264.DTS-FGT 9.23GB

[复制链接]

 成长值: 6010

级别:资源管理组

注册时间
2017-10-20
最后登录
2020-7-7
听众
1
收听
0
主题
97619
蓝光币
168125 枚
贡献
21715 点
发表于 6 天前 | 显示全部楼层 |阅读模式
硫磺岛的来信/来自硫磺岛的信 Letters.From.Iwo.Jima.2006.JAPANESE.1080p.BluRay.x264.DTS-FGT 9.23GB-1.png


译  名 硫磺岛的来信 / 来自硫磺岛的信 / 硫磺岛家信 / 硫磺岛战书 / 硫磺島からの手紙
片  名 Letters from Iwo Jima
年  代 2006
产  地 美国
类  别 剧情 / 历史 / 战争
语  言 英语 / 日语
上映日期 2006-12-09(日本) / 2007-02-02(美国)
IMDb评分  7.9/10 from 151347 users
IMDb链接  https://www.imdb.com/title/tt0498380
豆瓣评分 8.2/10 from 49190 users
豆瓣链接 https://movie.douban.com/subject/1917171/
片  长 141 分钟
导  演 克林特·伊斯特伍德 Clint Eastwood
编  剧 Iris Yamashita / 保罗·哈吉斯 Paul Haggis / Tadamichi Kuribayashi / Tsuyoko Yoshido
主  演 渡边谦 Ken Watanabe
       二宫和也 Kazunari Ninomiya
       加濑亮 Ryo Kase
       中村狮童 Shido Nakamura
       伊原刚志 Tsuyoshi Ihara
       裕木奈江 Nae
       松崎悠希 Yuki Matsuzaki


标  签 二战 | 战争 | 日本 | 美国 | 硫磺岛的来信 | ClintEastwood | 美国电影 | 二宫和也

简  介  

  中途岛战争失利间接公布了日军在承平洋疆场上的失利,负嵎顽抗的日军仍然苦守日本最南真个小岛—硫磺岛。这个看似不起眼的小岛,却上演了二战承平洋上最惨烈的战争。
  栗林忠道中将(渡边谦 饰)是日军在硫磺岛的批示官,负责这道日军最初的防线。栗林中将大力鼎新日军内部的成规和不敷,并设想出一整套对于美军、以迟延为主的作战计划。虽然他和日军的二万名官兵都高低齐心,但面临占尽空中上风的四万名美军兵士,栗林晓得这将是一场没有归路的战争。
  在最初的战争之前,栗林写下了他最初的家信……

获奖情况  

  第79届奥斯卡金像奖(2007)
  最好影片(提名) 史蒂文·斯皮尔伯格 / 罗伯特·洛伦兹 / 克林特·伊斯特伍德
  最好导演(提名) 克林特·伊斯特伍德
  最好原创剧本(提名) 保罗·哈吉斯 / 山下爱丽斯
  最好音效剪辑 阿兰·罗伯特·默里 / 巴布·亚斯曼

  第64届金球奖(2007)
  电影类 最好导演(提名) 克林特·伊斯特伍德
  电影类 最好外语片

  第31届日本电影学院奖(2008)
  最好外语片

  第7届美国电影学会奖(2006)
  年度佳片
  1. Video
  2. ID                                       : 1
  3. Format                                   : AVC
  4. Format/Info                              : Advanced Video Codec
  5. Format profile                           : High@L4
  6. Format settings                          : CABAC / 5 Ref Frames
  7. Format settings, CABAC                   : Yes
  8. Format settings, Reference frames        : 5 frames
  9. Codec ID                                 : V_MPEG4/ISO/AVC
  10. Duration                                 : 2 h 20 min
  11. Bit rate                                 : 7 889 kb/s
  12. Width                                    : 1 920 pixels
  13. Height                                   : 802 pixels
  14. Display aspect ratio                     : 2.40:1
  15. Frame rate mode                          : Constant
  16. Frame rate                               : 23.976 (24000/1001/189150) FPS
  17. Color space                              : YUV
  18. Chroma subsampling                       : 4:2:0
  19. Bit depth                                : 8 bits
  20. Scan type                                : Progressive
  21. Bits/(Pixel*Frame)                       : 0.214
  22. Stream size                              : 7.57 GiB (82%)
  23. Writing library                          : x264 core 100 r1659 57b2e56
  24. Encoding settings                        : cabac=1 / ref=5 / deblock=1:-3:-3 / analyse=0x3:0x113 / me=umh / subme=10 / psy=1 / psy_rd=1.20:0.00 / mixed_ref=1 / me_range=64 / chroma_me=1 / trellis=2 / 8x8dct=1 / cqm=0 / deadzone=21,11 / fast_pskip=0 / chroma_qp_offset=-2 / threads=6 / sliced_threads=0 / nr=0 / decimate=1 / interlaced=0 / constrained_intra=0 / bframes=6 / b_pyramid=2 / b_adapt=2 / b_bias=0 / direct=3 / weightb=1 / open_gop=0 / weightp=2 / keyint=250 / keyint_min=25 / scenecut=40 / intra_refresh=0 / rc_lookahead=40 / rc=2pass / mbtree=0 / bitrate=7889 / ratetol=1.0 / qcomp=0.60 / qpmin=10 / qpmax=51 / qpstep=4 / cplxblur=20.0 / qblur=0.5 / vbv_maxrate=50000 / vbv_bufsize=62500 / ip_ratio=1.40 / pb_ratio=1.30 / aq=1:1.00 / nal_hrd=none
  25. Language                                 : Japanese
  26. Default                                  : Yes
  27. Forced                                   : No

  28. Audio
  29. ID                                       : 2
  30. Format                                   : DTS
  31. Format/Info                              : Digital Theater Systems
  32. Codec ID                                 : A_DTS
  33. Duration                                 : 2 h 20 min
  34. Bit rate mode                            : Constant
  35. Bit rate                                 : 1 510 kb/s
  36. Channel(s)                               : 6 channels
  37. Channel layout                           : C L R Ls Rs LFE
  38. Sampling rate                            : 48.0 kHz
  39. Frame rate                               : 93.750 FPS (512 SPF)
  40. Bit depth                                : 24 bits
  41. Compression mode                         : Lossy
  42. Stream size                              : 1.48 GiB (16%)
  43. Language                                 : Japanese
  44. Default                                  : Yes
  45. Forced                                   : No

  46. Text
  47. ID                                       : 3
  48. Format                                   : UTF-8
  49. Codec ID                                 : S_TEXT/UTF8
  50. Codec ID/Info                            : UTF-8 Plain Text
  51. Language                                 : English
  52. Default                                  : Yes
  53. Forced                                   : Yes
复制代码

硫磺岛的来信/来自硫磺岛的信 Letters.From.Iwo.Jima.2006.JAPANESE.1080p.BluRay.x264.DTS-FGT 9.23GB-2.jpg
硫磺岛的来信/来自硫磺岛的信 Letters.From.Iwo.Jima.2006.JAPANESE.1080p.BluRay.x264.DTS-FGT 9.23GB-3.jpg
硫磺岛的来信/来自硫磺岛的信 Letters.From.Iwo.Jima.2006.JAPANESE.1080p.BluRay.x264.DTS-FGT 9.23GB-4.jpg
硫磺岛的来信/来自硫磺岛的信 Letters.From.Iwo.Jima.2006.JAPANESE.1080p.BluRay.x264.DTS-FGT 9.23GB-5.jpg







回复

使用道具 举报

级别:初级观众 Lv.1

注册时间
2020-1-12
最后登录
2020-7-1
听众
3
收听
0
主题
0
蓝光币
1 枚
贡献
0 点
QQ
发表于 6 天前 | 显示全部楼层
楼主发贴辛苦了,谢谢楼主分享!我觉得中国高清电影网是注册对了!
回复

使用道具 举报

 成长值: 1965

级别:尊贵的会员

注册时间
2020-3-1
最后登录
2020-7-7
听众
4
收听
0
主题
0
蓝光币
456 枚
贡献
0 点
发表于 6 天前 | 显示全部楼层
楼主发贴辛苦了,谢谢楼主分享!我觉得中国高清电影网是注册对了!
回复

使用道具 举报

懒得打字嘛,点击右侧快捷回复 【右侧内容,后台自定义】
您需要登录后才可以回帖 登录 | 立即注册

本版积分规则

Archiver|手机版|小黑屋| 中国高清网 ( ICP备17007870号-2 ) |网站地图 

GMT+8, 2020-7-7 20:33 , Processed in 0.167017 second(s), 41 queries .

Powered by HDchina X3.4

Copyright 2017-2019©HDchina.All right reserved

返回顶部 联系我们