查看: 136|回复: 2

[剧情片] 重装捍将 Silent.Trigger.1996.1080p.BluRay.x264.DTS-FGT 11.90GB

[复制链接]

 成长值: 6010

级别:资源管理组

注册时间
2017-10-20
最后登录
2020-7-7
听众
1
收听
0
主题
97619
蓝光币
168103 枚
贡献
21715 点
发表于 6 天前 | 显示全部楼层 |阅读模式
重装捍将 Silent.Trigger.1996.1080p.BluRay.x264.DTS-FGT 11.90GB-1.png


译  名 重装捍将 / Silent Trigger
片  名 Silent Trigger
年  代 1996
产  地 加拿大 / 英国
类  别 剧情 / 行动 / 惊悚
语  言 英语
上映日期 1996-07-04
IMDb评分  5.5/10 from 3554 users
IMDb链接  https://www.imdb.com/title/tt0117653
豆瓣评分 6.2/10 from 399 users
豆瓣链接 https://movie.douban.com/subject/1299028/
片  长 Germany: 88 分钟
导  演 拉塞尔·穆卡希 Russell Mulcahy
编  剧 Sergio Altieri
主  演 杜夫·龙格尔 Dolph Lundgren
       吉娜·贝尔曼 Gina Bellman
       Conrad Dunn
       克里斯托弗·赫耶达尔 Christopher Heyerdahl
       Emma Stevens
       Alexandria Haber
       Reynald Robinson
       Dale Hayes
       艾琳·西姆斯 Erin Simms
       Jonathan Robert Rondeau
       Carl Alacchi
       Jonathan Larocque
       安德里亚斯·艾波吉斯 Andreas Apergis
       Tim Post
       Jason Cavalier


标  签 行动 | 狙击 | 美国电影 | 行动片 | 加拿大 | 美国 | 暴力 | 1996

简  介  

  韦克斯曼(杜夫·龙格尔 Dolph Lundgren 饰)曾是一位效力于奥秘地下构造的奸细,在战争时代凭仗着惊人的准星立下了赫赫战功。战争竣事以后,韦克斯曼仍然没法从杀戮的宿射中摆脱出来,转型成为了潜伏在黑暗当中的杀手,现实上,对布满了血腥和危险的生活,韦克斯曼早已经很是厌倦,他心里里的倦意被下属发现,为了守旧住构造的机密,下属决议牺牲韦克斯曼这枚棋子。
  韦克斯曼和同寅克雷格(吉娜·贝尔曼 Gina Bellman 饰)一路接管了一个使命,现实上,下属别的派出了一位杀手,筹算在黑暗干掉韦克斯曼。多年来培育出的职业素养让韦克斯曼敏感的发现了情况的异常,他决议不向命运垂头,和克雷格一路追求生的希望。
  1. Video
  2. ID                                       : 1
  3. Format                                   : AVC
  4. Format/Info                              : Advanced Video Codec
  5. Format profile                           : High@L4
  6. Format settings, CABAC                   : Yes
  7. Format settings, ReFrames                : 5 frames
  8. Codec ID                                 : V_MPEG4/ISO/AVC
  9. Duration                                 : 1h 33mn
  10. Bit rate                                 : 17.0 Mbps
  11. Width                                    : 1 920 pixels
  12. Height                                   : 816 pixels
  13. Display aspect ratio                     : 2.35:1
  14. Frame rate mode                          : Constant
  15. Frame rate                               : 23.976 fps
  16. Color space                              : YUV
  17. Chroma subsampling                       : 4:2:0
  18. Bit depth                                : 8 bits
  19. Scan type                                : Progressive
  20. Bits/(Pixel*Frame)                       : 0.453
  21. Stream size                              : 11.2 GiB (94%)
  22. Writing library                          : x264 core 142 r2431+42 c69a006 tMod [High@L4:2:0 X86_64]
  23. Encoding settings                        : cabac=1 / ref=5 / deblock=1:-3:-3 / analyse=0x3:0x133 / me=umh / subme=10 / psy=1 / fade_compensate=0.00 / psy_rd=1.00:0.00 / mixed_ref=1 / me_range=24 / chroma_me=1 / trellis=2 / 8x8dct=1 / cqm=0 / deadzone=21,11 / fast_pskip=1 / chroma_qp_offset=-2 / threads=12 / lookahead_threads=2 / sliced_threads=0 / nr=0 / decimate=1 / interlaced=0 / bluray_compat=0 / constrained_intra=0 / fgo=0 / bframes=8 / b_pyramid=2 / b_adapt=2 / b_bias=0 / direct=3 / weightb=1 / open_gop=0 / weightp=2 / keyint=250 / keyint_min=23 / scenecut=40 / intra_refresh=0 / rc_lookahead=60 / rc=crf / mbtree=0 / crf=19.7000 / qcomp=0.65 / qpmin=0:0:0 / qpmax=69:69:69 / qpstep=4 / vbv_maxrate=62500 / vbv_bufsize=78125 / crf_max=0.0 / nal_hrd=none / filler=0 / ip_ratio=1.30 / pb_ratio=1.20 / aq=4:0.85 / aq-sensitivity=10.00 / aq-factor=1.00:1.00:1.00 / aq2=0 / aq3=0
  24. Language                                 : English
  25. Default                                  : Yes
  26. Forced                                   : No
  27. Color range                              : Limited
  28. Matrix coefficients                      : BT.709

  29. Audio
  30. ID                                       : 2
  31. Format                                   : DTS
  32. Format/Info                              : Digital Theater Systems
  33. Mode                                     : 16
  34. Format settings, Endianness              : Big
  35. Codec ID                                 : A_DTS
  36. Duration                                 : 1h 33mn
  37. Bit rate mode                            : Constant
  38. Bit rate                                 : 768 Kbps
  39. Channel(s)                               : 6 channels
  40. Channel positions                        : Front: L C R, Side: L R, LFE
  41. Sampling rate                            : 48.0 KHz
  42. Bit depth                                : 16 bits
  43. Compression mode                         : Lossy
  44. Stream size                              : 516 MiB (4%)
  45. Language                                 : English
  46. Default                                  : Yes
  47. Forced                                   : No

  48. Text
  49. ID                                       : 3
  50. Format                                   : UTF-8
  51. Codec ID                                 : S_TEXT/UTF8
  52. Codec ID/Info                            : UTF-8 Plain Text
  53. Language                                 : English
  54. Default                                  : No
  55. Forced                                   : No

  56. Menu
  57. 00:00:00.000                             : :00:00:00.000
  58. 00:10:55.446                             : :00:10:55.446
  59. 00:27:06.124                             : :00:27:06.124
  60. 00:38:09.496                             : :00:38:09.496
  61. 00:50:39.286                             : :00:50:39.286
  62. 01:01:01.825                             : :01:01:01.825
  63. 01:13:00.167                             : :01:13:00.167
  64. 01:30:20.624                             : :01:30:20.624
  65. 01:33:42.700                             : :01:33:42.700
复制代码

重装捍将 Silent.Trigger.1996.1080p.BluRay.x264.DTS-FGT 11.90GB-2.jpg
重装捍将 Silent.Trigger.1996.1080p.BluRay.x264.DTS-FGT 11.90GB-3.jpg








回复

使用道具 举报

级别:专业龙套 Lv.4

注册时间
2019-12-20
最后登录
2020-7-7
听众
2
收听
0
主题
0
蓝光币
204 枚
贡献
0 点
QQ
发表于 6 天前 | 显示全部楼层
楼主发贴辛苦了,谢谢楼主分享!我觉得中国高清电影网是注册对了!
回复

使用道具 举报

 成长值: 1965

级别:尊贵的会员

注册时间
2020-3-1
最后登录
2020-7-7
听众
4
收听
0
主题
0
蓝光币
456 枚
贡献
0 点
发表于 6 天前 | 显示全部楼层
楼主发贴辛苦了,谢谢楼主分享!我觉得中国高清电影网是注册对了!
回复

使用道具 举报

懒得打字嘛,点击右侧快捷回复 【右侧内容,后台自定义】
您需要登录后才可以回帖 登录 | 立即注册

本版积分规则

Archiver|手机版|小黑屋| 中国高清网 ( ICP备17007870号-2 ) |网站地图 

GMT+8, 2020-7-7 20:13 , Processed in 0.150873 second(s), 41 queries .

Powered by HDchina X3.4

Copyright 2017-2019©HDchina.All right reserved

返回顶部 联系我们