查看: 71|回复: 3

[喜剧片] 奇异恐惧/对一切的美妙恐惧 A.Fantastic.Fear.of.Everything.2012.1080p.BluRay.x264.DTS-FGT 8.80GB

[复制链接]

 成长值: 6010

级别:资源管理组

注册时间
2017-10-20
最后登录
2020-7-7
听众
1
收听
0
主题
97619
蓝光币
168095 枚
贡献
21715 点
发表于 6 天前 | 显示全部楼层 |阅读模式
奇异恐惧/对一切的美好恐惧 A.Fantastic.Fear.of.Everything.2012.1080p.BluRay.x264.DTS-FGT 8.80GB-1.png


译  名 奇异恐惧 / 对一切的美好恐惧
片  名 A Fantastic Fear of Everything
年  代 2012
产  地 英国
类  别 笑剧
语  言 英语
上映日期 2012-06-08(英国)
IMDb评分  5.8/10 from 13865 users
IMDb链接  https://www.imdb.com/title/tt2006040
豆瓣评分 6.8/10 from 3395 users
豆瓣链接 https://movie.douban.com/subject/6873148/
片  长 100分钟
导  演 Crispian Mills / Chris Hopewell
编  剧 Crispian Mills
主  演 西蒙·佩吉 Simon Pegg
       克莱儿·希金斯 Clare Higgins
       Amara Karan
       保罗·弗里曼 Paul Freeman
       Alan Drake


标  签 英国 | 笑剧 | 黑色诙谐 | SimonPegg | 2012 | 英国电影 | 西蒙·佩吉 | 西蒙佩吉

简  介  

  西蒙·佩吉饰演一个从儿童文学转向犯罪小说写作的作家杰克,为了写作一个名为《几十年的灭亡》(Decades of Death)的剧本,天生怯懦的杰克起头观察一些维多利亚期间连环杀手的材料,致使自己得了严重的妄想症,总是臆想自己会遭到谋杀。就在杰克生活搞得一团糟的时辰,一个奥秘的好莱坞片商却对他写出的剧本暗示出极大的爱好。
  1. Video
  2. ID                                       : 1
  3. Format                                   : AVC
  4. Format/Info                              : Advanced Video Codec
  5. Format profile                           : High@L4
  6. Format settings, CABAC                   : Yes
  7. Format settings, ReFrames                : 3 frames
  8. Codec ID                                 : V_MPEG4/ISO/AVC
  9. Duration                                 : 1h 40mn
  10. Bit rate                                 : 11.0 Mbps
  11. Width                                    : 1 920 pixels
  12. Height                                   : 1 040 pixels
  13. Display aspect ratio                     : 1.85:1
  14. Frame rate mode                          : Constant
  15. Frame rate                               : 23.976 fps
  16. Color space                              : YUV
  17. Chroma subsampling                       : 4:2:0
  18. Bit depth                                : 8 bits
  19. Scan type                                : Progressive
  20. Bits/(Pixel*Frame)                       : 0.230
  21. Stream size                              : 7.57 GiB (86%)
  22. Writing library                          : x264 core 125 r2200 999b753
  23. Encoding settings                        : cabac=1 / ref=4 / deblock=1:-2:-2 / analyse=0x3:0x113 / me=umh / subme=10 / psy=1 / psy_rd=1.01:0.00 / mixed_ref=1 / me_range=48 / chroma_me=1 / trellis=2 / 8x8dct=1 / cqm=0 / deadzone=21,11 / fast_pskip=0 / chroma_qp_offset=-2 / threads=6 / lookahead_threads=1 / sliced_threads=0 / nr=0 / decimate=1 / interlaced=0 / bluray_compat=0 / constrained_intra=0 / bframes=9 / b_pyramid=1 / b_adapt=2 / b_bias=0 / direct=3 / weightb=1 / open_gop=0 / weightp=2 / keyint=240 / keyint_min=23 / scenecut=40 / intra_refresh=0 / rc_lookahead=100 / rc=2pass / mbtree=1 / bitrate=11012 / ratetol=1.0 / qcomp=0.60 / qpmin=10 / qpmax=51 / qpstep=4 / cplxblur=20.0 / qblur=0.5 / vbv_maxrate=48000 / vbv_bufsize=40000 / nal_hrd=none / ip_ratio=1.40 / aq=1:1.00
  24. Language                                 : English
  25. Default                                  : Yes
  26. Forced                                   : No

  27. Audio
  28. ID                                       : 2
  29. Format                                   : DTS
  30. Format/Info                              : Digital Theater Systems
  31. Mode                                     : 16
  32. Format settings, Endianness              : Big
  33. Codec ID                                 : A_DTS
  34. Duration                                 : 1h 40mn
  35. Bit rate mode                            : Constant
  36. Bit rate                                 : 1 509 Kbps
  37. Channel(s)                               : 6 channels
  38. Channel positions                        : Front: L C R, Side: L R, LFE
  39. Sampling rate                            : 48.0 KHz
  40. Bit depth                                : 24 bits
  41. Compression mode                         : Lossy
  42. Stream size                              : 1.06 GiB (12%)
  43. Language                                 : English
  44. Default                                  : Yes
  45. Forced                                   : No

  46. Text #1
  47. ID                                       : 3
  48. Format                                   : PGS
  49. Muxing mode                              : zlib
  50. Codec ID                                 : S_HDMV/PGS
  51. Codec ID/Info                            : Picture based subtitle format used on BDs/HD-DVDs
  52. Language                                 : English
  53. Default                                  : No
  54. Forced                                   : No

  55. Text #2
  56. ID                                       : 4
  57. Format                                   : PGS
  58. Muxing mode                              : zlib
  59. Codec ID                                 : S_HDMV/PGS
  60. Codec ID/Info                            : Picture based subtitle format used on BDs/HD-DVDs
  61. Language                                 : Portuguese
  62. Default                                  : No
  63. Forced                                   : No

  64. Text #3
  65. ID                                       : 5
  66. Format                                   : PGS
  67. Muxing mode                              : zlib
  68. Codec ID                                 : S_HDMV/PGS
  69. Codec ID/Info                            : Picture based subtitle format used on BDs/HD-DVDs
  70. Language                                 : Spanish
  71. Default                                  : No
  72. Forced                                   : No
复制代码









回复

使用道具 举报

 成长值: 1965

级别:尊贵的会员

注册时间
2020-3-1
最后登录
2020-7-7
听众
4
收听
0
主题
0
蓝光币
456 枚
贡献
0 点
发表于 6 天前 | 显示全部楼层
楼主发贴辛苦了,谢谢楼主分享!我觉得中国高清电影网是注册对了!
回复

使用道具 举报

已抛锚 成长值: 650

级别:普通观众 Lv.2

注册时间
2019-12-5
最后登录
2020-7-6
听众
3
收听
0
主题
0
蓝光币
0 枚
贡献
0 点
发表于 5 天前 | 显示全部楼层

这东西我收了!谢谢楼主!中国高清电影网真好!
回复

使用道具 举报

懒得打字嘛,点击右侧快捷回复 【右侧内容,后台自定义】
您需要登录后才可以回帖 登录 | 立即注册

本版积分规则

Archiver|手机版|小黑屋| 中国高清网 ( ICP备17007870号-2 ) |网站地图 

GMT+8, 2020-7-7 20:03 , Processed in 0.143251 second(s), 40 queries .

Powered by HDchina X3.4

Copyright 2017-2019©HDchina.All right reserved

返回顶部 联系我们