查看: 52|回复: 1

[剧情片] 聪明人/爱情智囊团 Smart.People.2008.1080p.BluRay.x264.DD5.1-FGT 7.95GB

[复制链接]

 成长值: 6010

级别:资源管理组

注册时间
2017-10-20
最后登录
2020-7-7
听众
1
收听
0
主题
97616
蓝光币
168095 枚
贡献
21715 点
发表于 6 天前 | 显示全部楼层 |阅读模式
聪明人/恋爱智囊团 Smart.People.2008.1080p.BluRay.x264.DD5.1-FGT 7.95GB-1.png


译  名 聪明人 / 恋爱智囊团 / 畸才家属
片  名 Smart People
年  代 2008
产  地 美国
类  别 剧情 / 笑剧 / 恋爱 / 家庭
语  言 英语 / 西班牙语
上映日期 2008-04-11
IMDb评分  6.1/10 from 22205 users
IMDb链接  https://www.imdb.com/title/tt0858479
豆瓣评分 6.8/10 from 4023 users
豆瓣链接 https://movie.douban.com/subject/1944903/
片  长 95 分钟
导  演 Noam Murro
编  剧 Mark Poirier
主  演 Dennis Quaid
       Sarah Jessica Parker
       Thomas Haden Church
       Ellen Page
       Ashton Holmes
       Christine Lahti


标  签 EllenPage | 美国 | 美国电影 | 剧情 | 文艺 | 2008 | SarahJessicaParker | 我看过的电影

简  介  

  劳伦斯(丹尼斯·奎德 Dennis Quaid 饰)是一位要求严苛的中年教授,虽然心地善良,但他拒人千里的气质使得门生对其腻烦,儿子和女儿也日渐对其冷淡。自从妻子归天后,单独抚养两个孩子的他就变得加倍焦躁和无法。一天,劳伦斯意外从栅栏上摔下来,被送进了医院,并得知负责他康复的女医生珍妮特(莎拉·杰茜卡·帕克 Sarah Jessica Parker 饰)本来是他已经教过的门生,不外他已经记不清楚了。在频频约会后,劳伦斯发现自己似乎爱上了珍妮特,但是却深知自己仍在妻子去世的阴影之下盘桓。面临眼前他不舍放弃的女子,似乎是恋爱让这个老汉子又起头尝试改变,尝试敞高兴扉,尝试一个新的自己……
  1. Video
  2. ID                                       : 1
  3. Format                                   : AVC
  4. Format/Info                              : Advanced Video Codec
  5. Format profile                           : High@L4
  6. Format settings, CABAC                   : Yes
  7. Format settings, ReFrames                : 5 frames
  8. Codec ID                                 : V_MPEG4/ISO/AVC
  9. Duration                                 : 1h 34mn
  10. Bit rate                                 : 11.4 Mbps
  11. Width                                    : 1 920 pixels
  12. Height                                   : 800 pixels
  13. Display aspect ratio                     : 2.40:1
  14. Frame rate mode                          : Constant
  15. Frame rate                               : 23.976 fps
  16. Color space                              : YUV
  17. Chroma subsampling                       : 4:2:0
  18. Bit depth                                : 8 bits
  19. Scan type                                : Progressive
  20. Bits/(Pixel*Frame)                       : 0.308
  21. Stream size                              : 7.36 GiB (93%)
  22. Writing library                          : x264 core 60 r928 4816918
  23. Encoding settings                        : cabac=1 / ref=5 / deblock=1:0:0 / analyse=0x3:0x113 / me=umh / subme=7 / brdo=1 / mixed_ref=1 / me_range=16 / chroma_me=1 / trellis=1 / 8x8dct=1 / cqm=0 / deadzone=21,11 / chroma_qp_offset=0 / threads=6 / nr=0 / decimate=1 / mbaff=0 / bframes=3 / b_pyramid=1 / b_adapt=1 / b_bias=0 / direct=1 / wpredb=1 / bime=1 / keyint=250 / keyint_min=25 / scenecut=40(pre) / rc=2pass / bitrate=11351 / ratetol=1.0 / rceq=\'blurCplx^(1-qComp)\' / qcomp=1.00 / qpmin=10 / qpmax=51 / qpstep=4 / cplxblur=20.0 / qblur=0.5 / ip_ratio=1.40 / pb_ratio=1.30 / aq=2:1.00
  24. Language                                 : English
  25. Default                                  : Yes
  26. Forced                                   : No

  27. Audio
  28. ID                                       : 2
  29. Format                                   : AC-3
  30. Format/Info                              : Audio Coding 3
  31. Mode extension                           : CM (complete main)
  32. Format settings, Endianness              : Big
  33. Codec ID                                 : A_AC3
  34. Duration                                 : 1h 34mn
  35. Bit rate mode                            : Constant
  36. Bit rate                                 : 640 Kbps
  37. Channel(s)                               : 6 channels
  38. Channel positions                        : Front: L C R, Side: L R, LFE
  39. Sampling rate                            : 48.0 KHz
  40. Compression mode                         : Lossy
  41. Stream size                              : 434 MiB (5%)
  42. Language                                 : English
  43. Default                                  : Yes
  44. Forced                                   : No

  45. Text
  46. ID                                       : 3
  47. Format                                   : UTF-8
  48. Codec ID                                 : S_TEXT/UTF8
  49. Codec ID/Info                            : UTF-8 Plain Text
  50. Language                                 : English
  51. Default                                  : Yes
  52. Forced                                   : No
复制代码

聪明人/恋爱智囊团 Smart.People.2008.1080p.BluRay.x264.DD5.1-FGT 7.95GB-2.jpg
聪明人/恋爱智囊团 Smart.People.2008.1080p.BluRay.x264.DD5.1-FGT 7.95GB-3.jpg
聪明人/恋爱智囊团 Smart.People.2008.1080p.BluRay.x264.DD5.1-FGT 7.95GB-4.jpg
聪明人/恋爱智囊团 Smart.People.2008.1080p.BluRay.x264.DD5.1-FGT 7.95GB-5.jpg
聪明人/恋爱智囊团 Smart.People.2008.1080p.BluRay.x264.DD5.1-FGT 7.95GB-6.jpg
聪明人/恋爱智囊团 Smart.People.2008.1080p.BluRay.x264.DD5.1-FGT 7.95GB-7.jpg








回复

使用道具 举报

 成长值: 1965

级别:尊贵的会员

注册时间
2020-3-1
最后登录
2020-7-7
听众
4
收听
0
主题
0
蓝光币
456 枚
贡献
0 点
发表于 6 天前 | 显示全部楼层
楼主发贴辛苦了,谢谢楼主分享!我觉得中国高清电影网是注册对了!
回复

使用道具 举报

懒得打字嘛,点击右侧快捷回复 【右侧内容,后台自定义】
您需要登录后才可以回帖 登录 | 立即注册

本版积分规则

Archiver|手机版|小黑屋| 中国高清网 ( ICP备17007870号-2 ) |网站地图 

GMT+8, 2020-7-7 19:29 , Processed in 0.151986 second(s), 40 queries .

Powered by HDchina X3.4

Copyright 2017-2019©HDchina.All right reserved

返回顶部 联系我们