查看: 115|回复: 3

[剧情片] 魔鬼女大兵/伴我雄心 G.I.Jane.1997.1080p.BluRay.x264.DTS-FGT 10.33GB

[复制链接]

 成长值: 6010

级别:资源管理组

注册时间
2017-10-20
最后登录
2020-7-7
听众
1
收听
0
主题
97616
蓝光币
168095 枚
贡献
21715 点
发表于 6 天前 | 显示全部楼层 |阅读模式
魔鬼女大兵/伴我大志 G.I.Jane.1997.1080p.BluRay.x264.DTS-FGT 10.33GB-1.png


译  名 魔鬼女大兵 / 伴我大志 / 女兵简
片  名 G.I. Jane
年  代 1997
产  地 美国
类  别 剧情 / 行动
语  言 英语
上映日期 1997-08-22
IMDb评分  5.9/10 from 71597 users
IMDb链接  https://www.imdb.com/title/tt0119173
豆瓣评分 7.2/10 from 3884 users
豆瓣链接 https://movie.douban.com/subject/1298872/
片  长 124 分钟
导  演 Ridley Scott
编  剧 David Twohy / Danielle Alexandra
主  演 Demi Moore
       Viggo Mortensen
       Anne Bancroft
       Jason Beghe


标  签 美国 | 行动 | 战争 | 女性 | 美国电影 | DemiMoore | 1997 | RidleyScott

简  介  

  作为一枚政治筹码,水兵情报官欧尼尔(黛咪·摩尔 Demi Moore 饰)成为了美国历史上第一个加入特种军队“海豹突击队”练习的女性军官。凭仗此事,一向呼吁男女同等的参议员狄海雯(安妮·班克罗夫特 Anne Bancroft 饰)获得了诸多选票。但是,自擅自利的狄海雯底子就不关心欧尼尔作为个体的感受和遭受,由于她心里大白,欧尼尔底子不成能完成特种军队里残暴而又可怕的练习。
  让一切人大吃一惊的是,欧尼尔不但出色的完成了练习使命,甚至有能够经过终极考试成为特种军队正式的一员,在此节骨眼上,狄海雯只得使出阴招,以欧尼尔为同性恋的子虚来由将其逐出了队伍。在朋友的帮助下,欧尼尔揭穿了狄海雯的诡计,不但如此,她还一次实战使命中凭仗着自己的聪明大展拳脚,获得了同伴的尊重。
  1. Video
  2. ID                                       : 1
  3. Format                                   : AVC
  4. Format/Info                              : Advanced Video Codec
  5. Format profile                           : High@L4
  6. Format settings, CABAC                   : Yes
  7. Format settings, ReFrames                : 5 frames
  8. Codec ID                                 : V_MPEG4/ISO/AVC
  9. Duration                                 : 2h 5mn
  10. Bit rate                                 : 10.3 Mbps
  11. Width                                    : 1 920 pixels
  12. Height                                   : 820 pixels
  13. Display aspect ratio                     : 2.35:1
  14. Frame rate mode                          : Constant
  15. Frame rate                               : 23.976 fps
  16. Color space                              : YUV
  17. Chroma subsampling                       : 4:2:0
  18. Bit depth                                : 8 bits
  19. Scan type                                : Progressive
  20. Bits/(Pixel*Frame)                       : 0.273
  21. Stream size                              : 8.81 GiB (85%)
  22. Writing library                          : x264 core 67 r1127M 8d82fec
  23. Encoding settings                        : cabac=1 / ref=5 / deblock=1:-3:-2 / analyse=0x3:0x113 / me=umh / subme=9 / psy_rd=1.5:0.7 / mixed_ref=1 / me_range=32 / chroma_me=1 / trellis=2 / 8x8dct=1 / cqm=0 / deadzone=21,11 / chroma_qp_offset=-4 / threads=6 / nr=0 / decimate=0 / mbaff=0 / bframes=5 / b_pyramid=1 / b_adapt=2 / b_bias=0 / direct=3 / wpredb=1 / keyint=250 / keyint_min=25 / scenecut=40 / rc=2pass / bitrate=10300 / ratetol=1.0 / qcomp=0.60 / qpmin=10 / qpmax=51 / qpstep=4 / cplxblur=20.0 / qblur=0.5 / vbv_maxrate=50000 / vbv_bufsize=50000 / ip_ratio=1.40 / pb_ratio=1.30 / aq=1:1.00
  24. Language                                 : English
  25. Default                                  : Yes
  26. Forced                                   : No

  27. Audio
  28. ID                                       : 2
  29. Format                                   : DTS
  30. Format/Info                              : Digital Theater Systems
  31. Mode                                     : 16
  32. Format settings, Endianness              : Big
  33. Codec ID                                 : A_DTS
  34. Duration                                 : 2h 5mn
  35. Bit rate mode                            : Constant
  36. Bit rate                                 : 1 510 Kbps
  37. Channel(s)                               : 6 channels
  38. Channel positions                        : Front: L C R, Side: L R, LFE
  39. Sampling rate                            : 48.0 KHz
  40. Bit depth                                : 24 bits
  41. Compression mode                         : Lossy
  42. Stream size                              : 1.32 GiB (13%)
  43. Language                                 : English
  44. Default                                  : Yes
  45. Forced                                   : No
复制代码

魔鬼女大兵/伴我大志 G.I.Jane.1997.1080p.BluRay.x264.DTS-FGT 10.33GB-2.jpg
魔鬼女大兵/伴我大志 G.I.Jane.1997.1080p.BluRay.x264.DTS-FGT 10.33GB-3.jpg
魔鬼女大兵/伴我大志 G.I.Jane.1997.1080p.BluRay.x264.DTS-FGT 10.33GB-4.jpg
魔鬼女大兵/伴我大志 G.I.Jane.1997.1080p.BluRay.x264.DTS-FGT 10.33GB-5.jpg
魔鬼女大兵/伴我大志 G.I.Jane.1997.1080p.BluRay.x264.DTS-FGT 10.33GB-6.jpg








回复

使用道具 举报

 成长值: 1965

级别:尊贵的会员

注册时间
2020-3-1
最后登录
2020-7-7
听众
4
收听
0
主题
0
蓝光币
456 枚
贡献
0 点
发表于 6 天前 | 显示全部楼层
楼主发贴辛苦了,谢谢楼主分享!我觉得中国高清电影网是注册对了!
回复

使用道具 举报

级别:专业龙套 Lv.4

注册时间
2019-12-20
最后登录
2020-7-7
听众
2
收听
0
主题
0
蓝光币
204 枚
贡献
0 点
QQ
发表于 6 天前 | 显示全部楼层

这个帖子不回对不起自己!我想我是一天也不能离开中国高清电影网
回复

使用道具 举报

级别:普通观众 Lv.2

注册时间
2020-5-17
最后登录
2020-7-6
听众
1
收听
0
主题
0
蓝光币
87 枚
贡献
0 点
发表于 6 天前 | 显示全部楼层
楼主发贴辛苦了,谢谢楼主分享!我觉得中国高清电影网是注册对了!
回复

使用道具 举报

懒得打字嘛,点击右侧快捷回复 【右侧内容,后台自定义】
您需要登录后才可以回帖 登录 | 立即注册

本版积分规则

Archiver|手机版|小黑屋| 中国高清网 ( ICP备17007870号-2 ) |网站地图 

GMT+8, 2020-7-7 19:23 , Processed in 0.151732 second(s), 41 queries .

Powered by HDchina X3.4

Copyright 2017-2019©HDchina.All right reserved

返回顶部 联系我们