查看: 60|回复: 2

[剧情片] 自豪与荣耀/光荣与骄傲 Pride.and.Glory.2008.1080p.BluRay.x264.DTS-FGT 12.28GB

[复制链接]

 成长值: 6010

级别:资源管理组

注册时间
2017-10-20
最后登录
2020-7-7
听众
1
收听
0
主题
97616
蓝光币
168095 枚
贡献
21715 点
发表于 7 天前 | 显示全部楼层 |阅读模式
自豪与光荣/名誉与自豪 Pride.and.Glory.2008.1080p.BluRay.x264.DTS-FGT 12.28GB-1.png


译  名 自豪与光荣 / 名誉与自豪 / 名誉战警 / 不法鉴戒
片  名 Pride and Glory
年  代 2008
产  地 美国 / 德国
类  别 剧情 / 惊悚 / 犯罪
语  言 英语 / 西班牙语
上映日期 2008-10-24
IMDb评分  6.6/10 from 58364 users
IMDb链接  https://www.imdb.com/title/tt0482572
豆瓣评分 7.0/10 from 8135 users
豆瓣链接 https://movie.douban.com/subject/1507248/
片  长 130 分钟
导  演 加文·欧康诺 Gavin O'Connor
编  剧 乔·卡纳汉 Joe Carnahan / 加文·欧康诺 Gavin O'Connor
主  演 科林·法瑞尔 Colin Farrell
       爱德华·诺顿 Edward Norton
       强·沃特 Jon Voight
       诺亚·艾默里奇 Noah Emmerich
       詹妮弗·艾莉 Jennifer Ehle
       约翰·奥提兹 John Ortiz
       弗兰克·格里罗 Frank Grillo
       谢伊·惠格姆 Shea Whigham
       蕾克·贝尔 Lake Bell
       卡门·艾乔戈 Carmen Ejogo
       曼尼·佩雷斯 Manny Perez
       韦恩·杜瓦尔 Wayne Duvall
       拉蒙·罗德里格兹 Ramon Rodriguez
       瑞克·冈萨雷斯 Rick Gonzalez
       马克斯米利亚诺·赫尔南德斯 Maximiliano Hernández


标  签 EdwardNorton | 犯罪 | 美国 | ColinFarrell | 爱德华·诺顿 | 美国电影 | 2008 | 剧情

简  介  

  在纽约警署,泰尔尼家属申明赫赫。老弗朗西斯·泰尔尼(强·沃特 Jon Voight 饰)创下无数劳苦功高,在黑白两道皆有很高名誉,他的儿子小弗朗西斯(诺亚·艾默里奇 Noah Emmerich 饰)、雷(爱德华·诺顿 Edward Norton 饰)以及半子吉米·伊根(柯林·法瑞尔 Colin Farrell 饰)也一样在差人的岗位上兢兢业业。某晚,正在加入橄榄球角逐的吉米忽然获得凶讯,他所负责的辖区发生枪战,数名警察中弹身亡。在父亲的激励下,雷加入出格行动小组,起头追捕相关疑犯。
  在观察进程中,雷发现越来越多疑点,进而发觉吉米、小弗朗西斯甚嫡亲爱的父亲都能够牵扯其中。正义在这一刻染上污点,雷的观察之路也布满盘曲和危险……
  1. Video
  2. ID                                       : 1
  3. Format                                   : AVC
  4. Format/Info                              : Advanced Video Codec
  5. Format profile                           : High@L4
  6. Format settings                          : CABAC / 5 Ref Frames
  7. Format settings, CABAC                   : Yes
  8. Format settings, Reference frames        : 5 frames
  9. Format settings, GOP                     : N=1
  10. Codec ID                                 : V_MPEG4/ISO/AVC
  11. Duration                                 : 2 h 10 min
  12. Bit rate                                 : 12.0 Mb/s
  13. Width                                    : 1 920 pixels
  14. Height                                   : 1 080 pixels
  15. Display aspect ratio                     : 16:9
  16. Frame rate mode                          : Constant
  17. Frame rate                               : 23.976 FPS
  18. Color space                              : YUV
  19. Chroma subsampling                       : 4:2:0
  20. Bit depth                                : 8 bits
  21. Scan type                                : Progressive
  22. Bits/(Pixel*Frame)                       : 0.241
  23. Stream size                              : 10.7 GiB (87%)
  24. Writing library                          : x264 core 66 r1114M a933a3e
  25. Encoding settings                        : cabac=1 / ref=5 / deblock=1:-3:-3 / analyse=0x3:0x113 / me=esa / subme=8 / psy_rd=1.3:0.2 / mixed_ref=0 / me_range=16 / chroma_me=1 / trellis=2 / 8x8dct=1 / cqm=0 / deadzone=21,11 / chroma_qp_offset=-3 / threads=6 / nr=0 / decimate=0 / mbaff=0 / bframes=4 / b_pyramid=0 / b_adapt=2 / b_bias=0 / direct=1 / wpredb=1 / keyint=250 / keyint_min=25 / scenecut=40(pre) / rc=2pass / bitrate=12000 / ratetol=1.0 / qcomp=0.60 / qpmin=10 / qpmax=51 / qpstep=4 / cplxblur=20.0 / qblur=0.5 / ip_ratio=1.40 / pb_ratio=1.30 / aq=1:0.80
  26. Language                                 : English
  27. Default                                  : Yes
  28. Forced                                   : No

  29. Audio
  30. ID                                       : 2
  31. Format                                   : DTS
  32. Format/Info                              : Digital Theater Systems
  33. Codec ID                                 : A_DTS
  34. Duration                                 : 2 h 10 min
  35. Bit rate mode                            : Constant
  36. Bit rate                                 : 1 510 kb/s
  37. Channel(s)                               : 6 channels
  38. Channel layout                           : C L R Ls Rs LFE
  39. Sampling rate                            : 48.0 kHz
  40. Frame rate                               : 93.750 FPS (512 SPF)
  41. Bit depth                                : 24 bits
  42. Compression mode                         : Lossy
  43. Stream size                              : 1.37 GiB (11%)
  44. Language                                 : English
  45. Default                                  : Yes
  46. Forced                                   : No

  47. Text
  48. ID                                       : 3
  49. Format                                   : UTF-8
  50. Codec ID                                 : S_TEXT/UTF8
  51. Codec ID/Info                            : UTF-8 Plain Text
  52. Language                                 : English
  53. Default                                  : No
  54. Forced                                   : No
复制代码

自豪与光荣/名誉与自豪 Pride.and.Glory.2008.1080p.BluRay.x264.DTS-FGT 12.28GB-2.jpg








回复

使用道具 举报

 成长值: 1965

级别:尊贵的会员

注册时间
2020-3-1
最后登录
2020-7-7
听众
4
收听
0
主题
0
蓝光币
456 枚
贡献
0 点
发表于 6 天前 | 显示全部楼层
楼主发贴辛苦了,谢谢楼主分享!我觉得中国高清电影网是注册对了!
回复

使用道具 举报

级别:专业龙套 Lv.4

注册时间
2019-12-20
最后登录
2020-7-7
听众
2
收听
0
主题
0
蓝光币
204 枚
贡献
0 点
QQ
发表于 6 天前 | 显示全部楼层
谢谢楼主分享!
回复

使用道具 举报

懒得打字嘛,点击右侧快捷回复 【右侧内容,后台自定义】
您需要登录后才可以回帖 登录 | 立即注册

本版积分规则

Archiver|手机版|小黑屋| 中国高清网 ( ICP备17007870号-2 ) |网站地图 

GMT+8, 2020-7-7 19:46 , Processed in 0.144328 second(s), 41 queries .

Powered by HDchina X3.4

Copyright 2017-2019©HDchina.All right reserved

返回顶部 联系我们