查看: 113|回复: 1

[动作片] 绝命反击/失败者 The.Losers.2010.1080p.BluRay.x264.DTS-FGT 9.51GB

[复制链接]

 成长值: 5940

级别:资源管理组

注册时间
2017-10-20
最后登录
2020-7-2
听众
1
收听
0
主题
97202
蓝光币
165675 枚
贡献
21581 点
发表于 前天 12:02 | 显示全部楼层 |阅读模式
绝命还击/失利者 The.Losers.2010.1080p.BluRay.x264.DTS-FGT 9.51GB-1.png


译  名 绝命还击 / 失利者 / 衰仔帮 / 败者为王
片  名 The Losers
年  代 2010
产  地 美国
类  别 行动 / 悬疑 / 惊悚 / 犯罪 / 冒险
语  言 英语
上映日期 2010-04-23
IMDb评分  6.3/10 from 89110 users
IMDb链接  https://www.imdb.com/title/tt0480255
豆瓣评分 6.4/10 from 10828 users
豆瓣链接 https://movie.douban.com/subject/2027933/
片  长 97 分钟
导  演 Sylvain White
编  剧 Peter Berg / James Vanderbilt
主  演 杰弗里·迪恩·摩根 Jeffrey Dean Morgan
       佐伊·索尔达娜 Zoe Saldana
       克里斯·埃文斯 Chris Evans
       杰森·帕特里克 Jason Patric
       伊德瑞斯·艾尔巴 Idris Elba
       哥伦布·绍特 Columbus Short
       奥斯卡·贾恩那达 óscar Jaenada


标  签 行动 | 美国 | 漫画改编 | 犯罪 | 美国电影 | 2010 | 笑剧 | 电影

简  介  

  有一个受聘于美国政府的机密构造,成员包括领甲士物克莱(杰弗里·迪恩·摩根 Jeffrey Dean Morgan 饰)、放荡不羁的简森(克里斯·埃文斯 Chris Evans 饰)、兵器专家罗克(伊德瑞斯·艾尔巴 Idris Elba 饰)以及普奇(哥伦布·绍特Columbus Short 饰)、酷格(奥斯卡·贾恩那达 óscar Jaenada 饰)等人。他们在玻利维亚履利用命时,因内鬼麦克斯(杰森·帕特里克 Jason Patric 饰)的出售,让每小我的生命都覆盖在灭亡威胁里。克莱将计就计,捏造了大师的灭亡,更名“失利者”奥秘潜回美国。此时,一位叫做爱莎(佐伊·索尔达娜 Zoe Saldana 饰)的奥秘女郎也加入失利者构造,与克莱一行人起头复仇。克莱一行人能否顺遂的抓出内鬼,重新找回庄严呢?关键之处的奥秘,实在全系于功夫高强的爱莎一身……

获奖情况  

  第12届美国青少年挑选奖(2010)
  最好行动冒险电影(提名)
  最好行动冒险电影女演员(提名) 佐伊·索尔达娜
  1. Video
  2. ID                                       : 1
  3. Format                                   : AVC
  4. Format/Info                              : Advanced Video Codec
  5. Format profile                           : High@L4
  6. Format settings, CABAC                   : Yes
  7. Format settings, ReFrames                : 5 frames
  8. Codec ID                                 : V_MPEG4/ISO/AVC
  9. Duration                                 : 1h 37mn
  10. Bit rate                                 : 12.5 Mbps
  11. Width                                    : 1 920 pixels
  12. Height                                   : 800 pixels
  13. Display aspect ratio                     : 2.40:1
  14. Frame rate mode                          : Constant
  15. Frame rate                               : 23.976 fps
  16. Color space                              : YUV
  17. Chroma subsampling                       : 4:2:0
  18. Bit depth                                : 8 bits
  19. Scan type                                : Progressive
  20. Bits/(Pixel*Frame)                       : 0.340
  21. Stream size                              : 8.30 GiB (87%)
  22. Writing library                          : x264 core 88 r1471 1144615
  23. Encoding settings                        : cabac=1 / ref=5 / deblock=1:-3:-3 / analyse=0x3:0x113 / me=umh / subme=10 / psy=1 / psy_rd=1.05:0.10 / mixed_ref=1 / me_range=48 / chroma_me=1 / trellis=2 / 8x8dct=1 / cqm=2 / deadzone=21,11 / fast_pskip=0 / chroma_qp_offset=-2 / threads=12 / sliced_threads=0 / nr=0 / decimate=1 / mbaff=0 / constrained_intra=0 / bframes=5 / b_pyramid=2 / b_adapt=2 / b_bias=0 / direct=3 / wpredb=1 / wpredp=2 / keyint=250 / keyint_min=25 / scenecut=40 / intra_refresh=0 / rc_lookahead=60 / rc=2pass / mbtree=1 / bitrate=12510 / ratetol=2.0 / qcomp=0.70 / qpmin=10 / qpmax=51 / qpstep=4 / cplxblur=20.0 / qblur=0.5 / vbv_maxrate=50000 / vbv_bufsize=50000 / ip_ratio=1.40 / aq=1:1.00
  24. Language                                 : English
  25. Default                                  : Yes
  26. Forced                                   : No

  27. Audio
  28. ID                                       : 2
  29. Format                                   : DTS
  30. Format/Info                              : Digital Theater Systems
  31. Mode                                     : 16
  32. Format settings, Endianness              : Big
  33. Codec ID                                 : A_DTS
  34. Duration                                 : 1h 37mn
  35. Bit rate mode                            : Constant
  36. Bit rate                                 : 1 509 Kbps
  37. Channel(s)                               : 6 channels
  38. Channel positions                        : Front: L C R, Side: L R, LFE
  39. Sampling rate                            : 48.0 KHz
  40. Bit depth                                : 24 bits
  41. Compression mode                         : Lossy
  42. Stream size                              : 1.02 GiB (11%)
  43. Language                                 : English
  44. Default                                  : Yes
  45. Forced                                   : No

  46. Text #1
  47. ID                                       : 3
  48. Format                                   : UTF-8
  49. Codec ID                                 : S_TEXT/UTF8
  50. Codec ID/Info                            : UTF-8 Plain Text
  51. Language                                 : English
  52. Default                                  : No
  53. Forced                                   : No

  54. Text #2
  55. ID                                       : 4
  56. Format                                   : UTF-8
  57. Codec ID                                 : S_TEXT/UTF8
  58. Codec ID/Info                            : UTF-8 Plain Text
  59. Title                                    : SDH
  60. Language                                 : English
  61. Default                                  : No
  62. Forced                                   : No

  63. Menu
  64. 00:00:00.000                             : en:00:00:00.000
  65. 00:06:17.085                             : en:00:06:17.085
  66. 00:10:47.355                             : en:00:10:47.355
  67. 00:14:59.023                             : en:00:14:59.023
  68. 00:20:54.878                             : en:00:20:54.878
  69. 00:25:52.467                             : en:00:25:52.467
  70. 00:31:21.546                             : en:00:31:21.546
  71. 00:40:18.249                             : en:00:40:18.249
  72. 00:46:43.133                             : en:00:46:43.133
  73. 00:54:42.988                             : en:00:54:42.988
  74. 00:59:43.204                             : en:00:59:43.204
  75. 01:05:21.125                             : en:01:05:21.125
  76. 01:12:58.582                             : en:01:12:58.582
  77. 01:18:33.959                             : en:01:18:33.959
  78. 01:26:28.725                             : en:01:26:28.725
  79. 01:29:41.876                             : en:01:29:41.876
复制代码

绝命还击/失利者 The.Losers.2010.1080p.BluRay.x264.DTS-FGT 9.51GB-2.png
绝命还击/失利者 The.Losers.2010.1080p.BluRay.x264.DTS-FGT 9.51GB-3.png
绝命还击/失利者 The.Losers.2010.1080p.BluRay.x264.DTS-FGT 9.51GB-4.png
绝命还击/失利者 The.Losers.2010.1080p.BluRay.x264.DTS-FGT 9.51GB-5.png
绝命还击/失利者 The.Losers.2010.1080p.BluRay.x264.DTS-FGT 9.51GB-6.png
绝命还击/失利者 The.Losers.2010.1080p.BluRay.x264.DTS-FGT 9.51GB-7.png








回复

使用道具 举报

 成长值: 1890

级别:尊贵的会员

注册时间
2020-3-1
最后登录
2020-7-2
听众
4
收听
0
主题
0
蓝光币
447 枚
贡献
0 点
发表于 前天 19:12 | 显示全部楼层
楼主发贴辛苦了,谢谢楼主分享!我觉得中国高清电影网是注册对了!
回复

使用道具 举报

懒得打字嘛,点击右侧快捷回复 【右侧内容,后台自定义】
您需要登录后才可以回帖 登录 | 立即注册

本版积分规则

Archiver|手机版|小黑屋| 中国高清网 ( ICP备17007870号-2 ) |网站地图 

GMT+8, 2020-7-2 20:20 , Processed in 0.148206 second(s), 39 queries .

Powered by HDchina X3.4

Copyright 2017-2019©HDchina.All right reserved

返回顶部 联系我们