查看: 81|回复: 1

[剧情片] 绝对复仇/复仇飚花 Sworn.to.Justice.1996.1080p.BluRay.x264.DTS-FGT 8.34GB

[复制链接]

 成长值: 5940

级别:资源管理组

注册时间
2017-10-20
最后登录
2020-7-2
听众
1
收听
0
主题
97193
蓝光币
165669 枚
贡献
21572 点
发表于 前天 12:00 | 显示全部楼层 |阅读模式
绝对复仇/复仇飚花 Sworn.to.Justice.1996.1080p.BluRay.x264.DTS-FGT 8.34GB-1.png


译  名 绝对复仇 / 复仇飚花
片  名 Sworn to Justice
年  代 1996
产  地 美国
类  别 剧情 / 行动
语  言 英语
上映日期 1997-02-11
IMDb评分  5.0/10 from 479 users
IMDb链接  https://www.imdb.com/title/tt0117803
豆瓣评分 0/10 from 0 users
豆瓣链接 https://movie.douban.com/subject/1305627/
片  长 97 分钟
导  演 Paul Maslak
编  剧 Neva Friedenn / Paul Maslak / Robert Easter
主  演 Cynthia Rothrock
       Makoto Nonomura
       布拉德·道里夫


标  签 罗芙洛 | 美国 | 行动 | 1997 | 美国电影 | 234

简  介  

  琼娜是一位美艳性感的心理医生,在一次出差返家以后,琼娜的家中居然闯入一个来路不明的蒙面客,虽然她奋力地与对方作殊死战,可是很不幸地,仍然拯救不了姊姊和侄儿的人命。不外,不幸中的大幸是,琼娜在历经了九死平生后,逃出暴徒的进犯。可是她的头部也是以遭到严重的创伤,而被送入医院。出院后,琼娜在一位年轻律师库克的帮助下,筹算出庭作证,找出杀戮她家人的凶手,可是,丧亲之痛与大盗的阴影却一向在她心中挥之不去。随着情况的日益严重,这场悲剧竟使得琼娜起头出现幻觉,频频见到一些不曾出现的血腥排场……
  1. Video
  2. ID                                       : 1
  3. Format                                   : AVC
  4. Format/Info                              : Advanced Video Codec
  5. Format profile                           : High@L4
  6. Format settings                          : CABAC / 4 Ref Frames
  7. Format settings, CABAC                   : Yes
  8. Format settings, Reference frames        : 4 frames
  9. Codec ID                                 : V_MPEG4/ISO/AVC
  10. Duration                                 : 1 h 37 min
  11. Bit rate                                 : 11.5 Mb/s
  12. Width                                    : 1 920 pixels
  13. Height                                   : 1 080 pixels
  14. Display aspect ratio                     : 16:9
  15. Frame rate mode                          : Constant
  16. Frame rate                               : 23.976 (24000/1001/189150) FPS
  17. Color space                              : YUV
  18. Chroma subsampling                       : 4:2:0
  19. Bit depth                                : 8 bits
  20. Scan type                                : Progressive
  21. Bits/(Pixel*Frame)                       : 0.231
  22. Stream size                              : 7.82 GiB (94%)
  23. Title                                    : Sworn.to.Justice.1996.1080p.BluRay.x264.DTS-FGT
  24. Writing library                          : x264 core 148 r2795M aaa9aa8
  25. Encoding settings                        : cabac=1 / ref=4 / deblock=1:-2:-2 / analyse=0x3:0x113 / me=umh / subme=9 / psy=1 / psy_rd=1.00:0.15 / mixed_ref=1 / me_range=16 / chroma_me=1 / trellis=2 / 8x8dct=1 / cqm=0 / deadzone=21,11 / fast_pskip=1 / chroma_qp_offset=-3 / threads=24 / lookahead_threads=3 / sliced_threads=0 / nr=0 / decimate=1 / interlaced=0 / bluray_compat=0 / constrained_intra=0 / bframes=3 / b_pyramid=2 / b_adapt=1 / b_bias=0 / direct=3 / weightb=1 / open_gop=0 / weightp=2 / keyint=250 / keyint_min=25 / scenecut=40 / intra_refresh=0 / rc_lookahead=50 / rc=2pass / mbtree=1 / bitrate=11500 / ratetol=1.0 / qcomp=0.60 / qpmin=0 / qpmax=69 / qpstep=4 / cplxblur=20.0 / qblur=0.5 / vbv_maxrate=31250 / vbv_bufsize=31250 / nal_hrd=none / filler=0 / ip_ratio=1.40 / aq=1:1.00
  26. Language                                 : English
  27. Default                                  : Yes
  28. Forced                                   : No

  29. Audio
  30. ID                                       : 2
  31. Format                                   : DTS
  32. Format/Info                              : Digital Theater Systems
  33. Codec ID                                 : A_DTS
  34. Duration                                 : 1 h 37 min
  35. Bit rate mode                            : Constant
  36. Bit rate                                 : 768 kb/s
  37. Channel(s)                               : 2 channels
  38. Channel layout                           : L R
  39. Sampling rate                            : 48.0 kHz
  40. Frame rate                               : 93.750 FPS (512 SPF)
  41. Bit depth                                : 16 bits
  42. Compression mode                         : Lossy
  43. Stream size                              : 535 MiB (6%)
  44. Title                                    : Sworn.to.Justice.1996.1080p.BluRay.x264.DTS-FGT
  45. Language                                 : English
  46. Default                                  : No
  47. Forced                                   : No

  48. Text
  49. ID                                       : 3
  50. Format                                   : UTF-8
  51. Codec ID                                 : S_TEXT/UTF8
  52. Codec ID/Info                            : UTF-8 Plain Text
  53. Duration                                 : 1 h 30 min
  54. Bit rate                                 : 50 b/s
  55. Count of elements                        : 1111
  56. Stream size                              : 33.4 KiB (0%)
  57. Language                                 : English
  58. Default                                  : Yes
  59. Forced                                   : No

  60. Menu
  61. 00:00:00.000                             : en:Chapter 01
  62. 00:08:03.774                             : en:Chapter 02
  63. 00:16:05.297                             : en:Chapter 03
  64. 00:24:50.447                             : en:Chapter 04
  65. 00:32:31.074                             : en:Chapter 05
  66. 00:38:26.971                             : en:Chapter 06
  67. 00:50:27.482                             : en:Chapter 07
  68. 00:56:29.344                             : en:Chapter 08
  69. 01:04:20.898                             : en:Chapter 09
  70. 01:12:03.485                             : en:Chapter 10
  71. 01:21:39.936                             : en:Chapter 11
  72. 01:29:29.030                             : en:Chapter 12
复制代码

绝对复仇/复仇飚花 Sworn.to.Justice.1996.1080p.BluRay.x264.DTS-FGT 8.34GB-2.png
绝对复仇/复仇飚花 Sworn.to.Justice.1996.1080p.BluRay.x264.DTS-FGT 8.34GB-3.png
绝对复仇/复仇飚花 Sworn.to.Justice.1996.1080p.BluRay.x264.DTS-FGT 8.34GB-4.png








回复

使用道具 举报

 成长值: 1890

级别:尊贵的会员

注册时间
2020-3-1
最后登录
2020-7-2
听众
4
收听
0
主题
0
蓝光币
447 枚
贡献
0 点
发表于 前天 19:13 | 显示全部楼层
楼主发贴辛苦了,谢谢楼主分享!我觉得中国高清电影网是注册对了!
回复

使用道具 举报

懒得打字嘛,点击右侧快捷回复 【右侧内容,后台自定义】
您需要登录后才可以回帖 登录 | 立即注册

本版积分规则

Archiver|手机版|小黑屋| 中国高清网 ( ICP备17007870号-2 ) |网站地图 

GMT+8, 2020-7-2 20:08 , Processed in 0.154753 second(s), 39 queries .

Powered by HDchina X3.4

Copyright 2017-2019©HDchina.All right reserved

返回顶部 联系我们