查看: 71|回复: 1

[剧情片] 铁案风云/警察大亨 Q.and.A.1990.1080p.BluRay.x264.DTS-FGT 12.04GB

[复制链接]

 成长值: 6010

级别:资源管理组

注册时间
2017-10-20
最后登录
2020-7-7
听众
1
收听
0
主题
97616
蓝光币
168095 枚
贡献
21715 点
发表于 7 天前 | 显示全部楼层 |阅读模式
铁案风云/差人富翁 Q.and.A.1990.1080p.BluRay.x264.DTS-FGT 12.04GB-1.png


译  名 铁案风云 / 差人富翁
片  名 Q & A
年  代 1990
产  地 美国
类  别 剧情 / 犯罪
语  言 英语
上映日期 1990-04-27
IMDb评分  6.6/10 from 5117 users
IMDb链接  https://www.imdb.com/title/tt0100442
豆瓣评分 0/10 from 0 users
豆瓣链接 https://movie.douban.com/subject/1292617/
片  长 132 分钟
导  演 Sidney Lumet
编  剧 Sidney Lumet
主  演 Nick Nolte
       Timothy Hutton
       Armand Assante
       Patrick O'Neal
       Charles S. Dutton


标  签 美国 | 西德尼·吕美特 | 剧情 | Sidney_Lumet | 1990 | 美国电影 | 犯罪 | SidneyLumet

简  介  

  A young district attorney seeking to prove a case against a corrupt police detective encounters a former lover and her new protector, a crime boss who refuse to help him in this gritty crime film.
  1. Video
  2. ID                                       : 1
  3. Format                                   : AVC
  4. Format/Info                              : Advanced Video Codec
  5. Format profile                           : High@L4
  6. Format settings                          : CABAC / 4 Ref Frames
  7. Format settings, CABAC                   : Yes
  8. Format settings, Reference frames        : 4 frames
  9. Codec ID                                 : V_MPEG4/ISO/AVC
  10. Duration                                 : 2 h 12 min
  11. Bit rate                                 : 11.5 Mb/s
  12. Width                                    : 1 920 pixels
  13. Height                                   : 1 080 pixels
  14. Display aspect ratio                     : 16:9
  15. Frame rate mode                          : Constant
  16. Frame rate                               : 23.976 (24000/1001/189150) FPS
  17. Color space                              : YUV
  18. Chroma subsampling                       : 4:2:0
  19. Bit depth                                : 8 bits
  20. Scan type                                : Progressive
  21. Bits/(Pixel*Frame)                       : 0.231
  22. Stream size                              : 10.6 GiB (88%)
  23. Title                                    : Q.and.A.1990.1080p.BluRay.x264.DTS-FGT
  24. Writing library                          : x264 core 148 r2795M aaa9aa8
  25. Encoding settings                        : cabac=1 / ref=4 / deblock=1:-2:-2 / analyse=0x3:0x113 / me=umh / subme=9 / psy=1 / psy_rd=1.00:0.15 / mixed_ref=1 / me_range=16 / chroma_me=1 / trellis=2 / 8x8dct=1 / cqm=0 / deadzone=21,11 / fast_pskip=1 / chroma_qp_offset=-3 / threads=72 / lookahead_threads=3 / sliced_threads=0 / nr=0 / decimate=1 / interlaced=0 / bluray_compat=0 / constrained_intra=0 / bframes=3 / b_pyramid=2 / b_adapt=1 / b_bias=0 / direct=3 / weightb=1 / open_gop=0 / weightp=2 / keyint=250 / keyint_min=25 / scenecut=40 / intra_refresh=0 / rc_lookahead=50 / rc=2pass / mbtree=1 / bitrate=11500 / ratetol=1.0 / qcomp=0.60 / qpmin=0 / qpmax=69 / qpstep=4 / cplxblur=20.0 / qblur=0.5 / vbv_maxrate=31250 / vbv_bufsize=31250 / nal_hrd=none / filler=0 / ip_ratio=1.40 / aq=1:1.00
  26. Language                                 : English
  27. Default                                  : Yes
  28. Forced                                   : No

  29. Audio
  30. ID                                       : 2
  31. Format                                   : DTS
  32. Format/Info                              : Digital Theater Systems
  33. Codec ID                                 : A_DTS
  34. Duration                                 : 2 h 12 min
  35. Bit rate mode                            : Constant
  36. Bit rate                                 : 1 509 kb/s
  37. Channel(s)                               : 2 channels
  38. Channel layout                           : L R
  39. Sampling rate                            : 48.0 kHz
  40. Frame rate                               : 93.750 FPS (512 SPF)
  41. Bit depth                                : 16 bits
  42. Compression mode                         : Lossy
  43. Stream size                              : 1.40 GiB (12%)
  44. Title                                    : Q.and.A.1990.1080p.BluRay.x264.DTS-FGT
  45. Language                                 : English
  46. Default                                  : Yes
  47. Forced                                   : No

  48. Menu
  49. 00:00:00.000                             : en:Chapter 01
  50. 00:05:17.233                             : en:Chapter 02
  51. 00:11:56.048                             : en:Chapter 03
  52. 00:15:56.163                             : en:Chapter 04
  53. 00:18:48.168                             : en:Chapter 05
  54. 00:23:33.203                             : en:Chapter 06
  55. 00:36:35.818                             : en:Chapter 07
  56. 00:39:24.779                             : en:Chapter 08
  57. 00:45:29.685                             : en:Chapter 09
  58. 00:47:23.882                             : en:Chapter 10
  59. 00:51:41.556                             : en:Chapter 11
  60. 00:58:26.127                             : en:Chapter 12
  61. 01:03:12.705                             : en:Chapter 13
  62. 01:11:51.015                             : en:Chapter 14
  63. 01:14:31.425                             : en:Chapter 15
  64. 01:18:37.754                             : en:Chapter 16
  65. 01:21:58.330                             : en:Chapter 17
  66. 01:31:21.309                             : en:Chapter 18
  67. 01:34:01.385                             : en:Chapter 19
  68. 01:42:17.464                             : en:Chapter 20
  69. 01:51:03.281                             : en:Chapter 21
  70. 01:55:34.302                             : en:Chapter 22
  71. 01:59:56.230                             : en:Chapter 23
  72. 02:10:12.930                             : en:Chapter 24
复制代码

铁案风云/差人富翁 Q.and.A.1990.1080p.BluRay.x264.DTS-FGT 12.04GB-2.png
铁案风云/差人富翁 Q.and.A.1990.1080p.BluRay.x264.DTS-FGT 12.04GB-3.png
铁案风云/差人富翁 Q.and.A.1990.1080p.BluRay.x264.DTS-FGT 12.04GB-4.png







回复

使用道具 举报

 成长值: 1965

级别:尊贵的会员

注册时间
2020-3-1
最后登录
2020-7-7
听众
4
收听
0
主题
0
蓝光币
456 枚
贡献
0 点
发表于 7 天前 | 显示全部楼层
楼主发贴辛苦了,谢谢楼主分享!我觉得中国高清电影网是注册对了!
回复

使用道具 举报

懒得打字嘛,点击右侧快捷回复 【右侧内容,后台自定义】
您需要登录后才可以回帖 登录 | 立即注册

本版积分规则

Archiver|手机版|小黑屋| 中国高清网 ( ICP备17007870号-2 ) |网站地图 

GMT+8, 2020-7-7 19:56 , Processed in 0.140050 second(s), 40 queries .

Powered by HDchina X3.4

Copyright 2017-2019©HDchina.All right reserved

返回顶部 联系我们