查看: 61|回复: 1

[剧情片] 浩劫大逃亡 The.Chain.Reaction.1980.1080p.BluRay.x264.DTS-FGT 8.40GB

[复制链接]

 成长值: 5940

级别:资源管理组

注册时间
2017-10-20
最后登录
2020-7-2
听众
1
收听
0
主题
97174
蓝光币
165661 枚
贡献
21553 点
发表于 前天 11:57 | 显示全部楼层 |阅读模式
浩劫大流亡 The.Chain.Reaction.1980.1080p.BluRay.x264.DTS-FGT 8.40GB-1.png


译  名 浩劫大流亡
片  名 The Chain Reaction
年  代 1980
产  地 澳大利亚
类  别 剧情 / 行动
语  言 英语
上映日期 1980-09-25
IMDb评分  5.4/10 from 770 users
IMDb链接  https://www.imdb.com/title/tt0080513
豆瓣评分 0/10 from 0 users
豆瓣链接 https://movie.douban.com/subject/1305156/
片  长 92 分钟
导  演 Ian Barry
编  剧 Ian Barry
主  演 史提夫·比斯利 Steve Bisley
       Arna-Maria Winchester
       休·基斯-拜恩 Hugh Keays-Byrne
       Richard Moir
       梅尔·吉布森 Mel Gibson


标  签 澳大利亚 | 行动 | 美国 | 心跳回忆, | 剧情 | M美国 | IanBarry | D梅尔·吉布森

简  介  

  An earthquake in rural Australia causes a dangerous leak at WALDO, a nuclear waste storage facility. Heinrich Schmidt, an engineer badly hurt in the accident, knows that the leak will poison the groundwater for hundreds of miles around, and wants to warn the public. His boss, however, is only interested in protecting himself, and believes the accident should be covered up, even at the expense of thousands of lives. Heinrich escapes from the facility, but is too badly injured to get very far. Lost in the woods and suffering from amnesia, he is rescued by Larry, an auto mechanic on vacation with his wife, Carmel. As Heinrich tries to piece together his memories of what happened, his boss' thugs are quickly closing in on the trio.
  1. Video
  2. ID                                       : 1
  3. Format                                   : AVC
  4. Format/Info                              : Advanced Video Codec
  5. Format profile                           : High@L4
  6. Format settings                          : CABAC / 4 Ref Frames
  7. Format settings, CABAC                   : Yes
  8. Format settings, Reference frames        : 4 frames
  9. Codec ID                                 : V_MPEG4/ISO/AVC
  10. Duration                                 : 1 h 32 min
  11. Bit rate                                 : 11.5 Mb/s
  12. Width                                    : 1 920 pixels
  13. Height                                   : 1 040 pixels
  14. Display aspect ratio                     : 1.85:1
  15. Frame rate mode                          : Constant
  16. Frame rate                               : 23.976 (24000/1001/189150) FPS
  17. Color space                              : YUV
  18. Chroma subsampling                       : 4:2:0
  19. Bit depth                                : 8 bits
  20. Scan type                                : Progressive
  21. Bits/(Pixel*Frame)                       : 0.240
  22. Stream size                              : 7.42 GiB (88%)
  23. Title                                    : The.Chain.Reaction.1980.1080p.BluRay.x264.DTS-FGT
  24. Writing library                          : x264 core 148 r2795M aaa9aa8
  25. Encoding settings                        : cabac=1 / ref=4 / deblock=1:-2:-2 / analyse=0x3:0x113 / me=umh / subme=9 / psy=1 / psy_rd=1.00:0.15 / mixed_ref=1 / me_range=16 / chroma_me=1 / trellis=2 / 8x8dct=1 / cqm=0 / deadzone=21,11 / fast_pskip=1 / chroma_qp_offset=-3 / threads=72 / lookahead_threads=3 / sliced_threads=0 / nr=0 / decimate=1 / interlaced=0 / bluray_compat=0 / constrained_intra=0 / bframes=3 / b_pyramid=2 / b_adapt=1 / b_bias=0 / direct=3 / weightb=1 / open_gop=0 / weightp=2 / keyint=250 / keyint_min=25 / scenecut=40 / intra_refresh=0 / rc_lookahead=50 / rc=2pass / mbtree=1 / bitrate=11500 / ratetol=1.0 / qcomp=0.60 / qpmin=0 / qpmax=69 / qpstep=4 / cplxblur=20.0 / qblur=0.5 / vbv_maxrate=31250 / vbv_bufsize=31250 / nal_hrd=none / filler=0 / ip_ratio=1.40 / aq=1:1.00
  26. Language                                 : English
  27. Default                                  : Yes
  28. Forced                                   : No

  29. Audio
  30. ID                                       : 2
  31. Format                                   : DTS
  32. Format/Info                              : Digital Theater Systems
  33. Codec ID                                 : A_DTS
  34. Duration                                 : 1 h 32 min
  35. Bit rate mode                            : Constant
  36. Bit rate                                 : 1 509 kb/s
  37. Channel(s)                               : 2 channels
  38. Channel layout                           : L R
  39. Sampling rate                            : 48.0 kHz
  40. Frame rate                               : 93.750 FPS (512 SPF)
  41. Bit depth                                : 16 bits
  42. Compression mode                         : Lossy
  43. Stream size                              : 997 MiB (12%)
  44. Title                                    : The.Chain.Reaction.1980.1080p.BluRay.x264.DTS-FGT
  45. Language                                 : English
  46. Default                                  : Yes
  47. Forced                                   : No

  48. Text
  49. ID                                       : 3
  50. Format                                   : UTF-8
  51. Codec ID                                 : S_TEXT/UTF8
  52. Codec ID/Info                            : UTF-8 Plain Text
  53. Duration                                 : 1 h 25 min
  54. Bit rate                                 : 50 b/s
  55. Count of elements                        : 1085
  56. Stream size                              : 32.0 KiB (0%)
  57. Language                                 : English
  58. Default                                  : Yes
  59. Forced                                   : No

  60. Menu
  61. 00:00:00.000                             : en:Chapter 1
  62. 00:00:13.764                             : en:Chapter 2
  63. 00:10:52.110                             : en:Chapter 3
  64. 00:18:13.551                             : en:Chapter 4
  65. 00:26:18.952                             : en:Chapter 5
  66. 00:34:08.213                             : en:Chapter 6
  67. 00:41:27.276                             : en:Chapter 7
  68. 00:49:39.518                             : en:Chapter 8
  69. 00:56:25.966                             : en:Chapter 9
  70. 01:05:31.636                             : en:Chapter 10
  71. 01:16:47.311                             : en:Chapter 11
  72. 01:22:03.752                             : en:Chapter 12
  73. 01:29:34.286                             : en:Chapter 13
复制代码

浩劫大流亡 The.Chain.Reaction.1980.1080p.BluRay.x264.DTS-FGT 8.40GB-2.png
浩劫大流亡 The.Chain.Reaction.1980.1080p.BluRay.x264.DTS-FGT 8.40GB-3.png








回复

使用道具 举报

 成长值: 1890

级别:尊贵的会员

注册时间
2020-3-1
最后登录
2020-7-2
听众
4
收听
0
主题
0
蓝光币
447 枚
贡献
0 点
发表于 前天 19:16 | 显示全部楼层
楼主发贴辛苦了,谢谢楼主分享!我觉得中国高清电影网是注册对了!
回复

使用道具 举报

懒得打字嘛,点击右侧快捷回复 【右侧内容,后台自定义】
您需要登录后才可以回帖 登录 | 立即注册

本版积分规则

Archiver|手机版|小黑屋| 中国高清网 ( ICP备17007870号-2 ) |网站地图 

GMT+8, 2020-7-2 19:45 , Processed in 0.154527 second(s), 39 queries .

Powered by HDchina X3.4

Copyright 2017-2019©HDchina.All right reserved

返回顶部 联系我们