查看: 75|回复: 1

[惊悚片] 迪亚特洛夫事件 Devils.Pass.aka.The.Dyatlov.Pass.Incident.2013.1080p.BluRay.x264.DD5.1-FGT 8.60GB

[复制链接]

 成长值: 6010

级别:资源管理组

注册时间
2017-10-20
最后登录
2020-7-7
听众
1
收听
0
主题
97619
蓝光币
168107 枚
贡献
21715 点
发表于 7 天前 | 显示全部楼层 |阅读模式
迪亚特洛夫事务 Devils.Pass.aka.The.Dyatlov.Pass.Incident.2013.1080p.BluRay.x264.DD5.1-FGT 8.60GB-1.png


译  名 迪亚特洛夫事务 / Devil's Pass / Тайна перевала Дятлова / 灭亡之山 / 诡山(台) / 达洛夫事务
片  名 The Dyatlov Pass Incident
年  代 2013
产  地 美国 / 英国 / 俄罗斯
类  别 惊悚 / 可骇
语  言 英语
上映日期 2013-02-28(俄罗斯)
IMDb评分  5.7/10 from 22291 users
IMDb链接  https://www.imdb.com/title/tt1905040
豆瓣评分 6.9/10 from 11543 users
豆瓣链接 https://movie.douban.com/subject/24289477/
片  长 100分钟
导  演 雷尼·哈林 Renny Harlin
编  剧 Vikram Weet
主  演 吉玛·阿金森 Gemma Atkinson
       Matt Stokoe
       Richard Reid
       Luke Albright
       Holly Goss


标  签 惊悚 | 伪记载 | 可骇 | 悬疑 | 科幻 | 美国 | 时空穿越 | 2013

简  介  

  1959年,九名俄罗斯爬山爱好者在乌拉尔山脉四周失落,当他们再次被人发现时却早已灭亡,死前恍如遭到庞大的惊吓以及非人力的强大外力的攻击,这就是著名的迪亚特洛夫山径事务,时至本日仍然是一个未解之谜。远在美国俄勒冈州的女大门生霍莉·金(Holly Goss 饰)对该事务深深厚迷,在获得基金支持后,她联系到电影系门生詹森·戴伊(Matt Stokoe 饰)以及其他三名爱好者,决议前往昔时的事发地址拍摄一部记载片,试图解开悬而未决的谜题。最初的旅程欢畅有如度假一般,但随着他们逐步接近目标地,各类匪夷所思的事务接连发生,队员的心头蒙上不祥的阴影。
  半个世纪前的噩梦行将在他们身上重现……
  1. Video
  2. ID                                       : 1
  3. Format                                   : AVC
  4. Format/Info                              : Advanced Video Codec
  5. Format profile                           : High@L4
  6. Format settings, CABAC                   : Yes
  7. Format settings, ReFrames                : 4 frames
  8. Codec ID                                 : V_MPEG4/ISO/AVC
  9. Duration                                 : 1h 40mn
  10. Bit rate                                 : 11.4 Mbps
  11. Width                                    : 1 920 pixels
  12. Height                                   : 1 036 pixels
  13. Display aspect ratio                     : 1.85:1
  14. Frame rate mode                          : Constant
  15. Frame rate                               : 23.976 (24000/1001) fps
  16. Color space                              : YUV
  17. Chroma subsampling                       : 4:2:0
  18. Bit depth                                : 8 bits
  19. Scan type                                : Progressive
  20. Bits/(Pixel*Frame)                       : 0.239
  21. Stream size                              : 7.98 GiB (93%)
  22. Writing library                          : x264 core 142 r2431+42 c69a006 tMod [High@L4 X86_64]
  23. Encoding settings                        : cabac=1 / ref=4 / deblock=1:-3:-3 / analyse=0x3:0x133 / me=umh / subme=11 / psy=1 / fade_compensate=0.00 / psy_rd=1.15:0.03 / mixed_ref=1 / me_range=36 / chroma_me=1 / trellis=2 / 8x8dct=1 / cqm=0 / deadzone=21,11 / fast_pskip=0 / chroma_qp_offset=-3 / threads=12 / lookahead_threads=3 / sliced_threads=0 / nr=0 / decimate=0 / interlaced=0 / bluray_compat=0 / constrained_intra=0 / fgo=0 / bframes=10 / b_pyramid=2 / b_adapt=2 / b_bias=0 / direct=3 / weightb=1 / open_gop=0 / weightp=2 / keyint=250 / keyint_min=23 / scenecut=40 / intra_refresh=0 / rc_lookahead=120 / rc=crf / mbtree=0 / crf=16.5000 / qcomp=0.70 / qpmin=0:0:0 / qpmax=69:69:69 / qpstep=4 / vbv_maxrate=62500 / vbv_bufsize=78125 / crf_max=0.0 / nal_hrd=none / filler=0 / ip_ratio=1.40 / pb_ratio=1.30 / aq=4:0.80 / aq-sensitivity=10.00 / aq-factor=1.00:1.00:1.00 / aq2=0 / aq3=0
  24. Language                                 : English
  25. Default                                  : Yes
  26. Forced                                   : No

  27. Audio
  28. ID                                       : 2
  29. Format                                   : AC-3
  30. Format/Info                              : Audio Coding 3
  31. Mode extension                           : CM (complete main)
  32. Format settings, Endianness              : Big
  33. Codec ID                                 : A_AC3
  34. Duration                                 : 1h 40mn
  35. Bit rate mode                            : Constant
  36. Bit rate                                 : 640 Kbps
  37. Channel(s)                               : 6 channels
  38. Channel positions                        : Front: L C R, Side: L R, LFE
  39. Sampling rate                            : 48.0 KHz
  40. Frame rate                               : 31.250 fps (1536 spf)
  41. Compression mode                         : Lossy
  42. Stream size                              : 459 MiB (5%)
  43. Language                                 : English
  44. Default                                  : Yes
  45. Forced                                   : No

  46. Menu
  47. 00:00:00.000                             : en:Chapter 1
  48. 00:00:00.333                             : en:Chapter 2
  49. 00:01:39.166                             : en:Chapter 3
  50. 00:16:14.416                             : en:Chapter 4
  51. 00:29:49.291                             : en:Chapter 5
  52. 00:41:49.750                             : en:Chapter 6
  53. 00:54:19.625                             : en:Chapter 7
  54. 01:07:26.458                             : en:Chapter 8
  55. 01:19:31.166                             : en:Chapter 9
  56. 01:30:32.750                             : en:Chapter 10
复制代码









回复

使用道具 举报

 成长值: 1965

级别:尊贵的会员

注册时间
2020-3-1
最后登录
2020-7-7
听众
4
收听
0
主题
0
蓝光币
456 枚
贡献
0 点
发表于 7 天前 | 显示全部楼层
楼主发贴辛苦了,谢谢楼主分享!我觉得中国高清电影网是注册对了!
回复

使用道具 举报

懒得打字嘛,点击右侧快捷回复 【右侧内容,后台自定义】
您需要登录后才可以回帖 登录 | 立即注册

本版积分规则

Archiver|手机版|小黑屋| 中国高清网 ( ICP备17007870号-2 ) |网站地图 

GMT+8, 2020-7-7 20:19 , Processed in 0.151258 second(s), 40 queries .

Powered by HDchina X3.4

Copyright 2017-2019©HDchina.All right reserved

返回顶部 联系我们