查看: 64|回复: 1

[剧情片] 最佳出价 The.Best.Offer.2013.1080p.BluRay.x264.DTS-FGT 9.78GB

[复制链接]

 成长值: 5940

级别:资源管理组

注册时间
2017-10-20
最后登录
2020-7-2
听众
1
收听
0
主题
97189
蓝光币
165669 枚
贡献
21568 点
发表于 前天 11:52 | 显示全部楼层 |阅读模式
最好出价 The.Best.Offer.2013.1080p.BluRay.x264.DTS-FGT 9.78GB-1.png


译  名 最好出价 / The Best Offer / 孤单拍卖师(台) / 最好买卖
片  名 La migliore offerta
年  代 2013
产  地 意大利
类  别 剧情 / 恋爱 / 悬疑
语  言 英语
上映日期 2013-01-01(意大利)
IMDb评分  7.8/10 from 104168 users
IMDb链接  https://www.imdb.com/title/tt1924396
豆瓣评分 8.4/10 from 121741 users
豆瓣链接 https://movie.douban.com/subject/7059671/
片  长 131分钟
导  演 朱塞佩·托纳多雷 Giuseppe Tornatore
编  剧 朱塞佩·托纳多雷 Giuseppe Tornatore
主  演 杰弗里·拉什 Geoffrey Rush
       吉姆·斯特吉斯 Jim Sturgess
       西尔维娅·侯克斯 Sylvia Hoeks
       唐纳德·萨瑟兰 Donald Sutherland
       菲利普·杰克森 Philip Jackson
       德尔莫特·克劳利 Dermot Crowley
       Kiruna Stamell
       莉亚·科贝德 Liya Kebede
       Sean Buchanan


标  签 悬疑 | 意大利 | 剧情 | 恋爱 | 人性 | 朱塞佩·托纳多雷 | 意大利电影 | 心理

简  介  

  性情怪僻的奥德曼师长(杰弗里·拉什 Geoffrey Rush 饰)是一家顶级艺术品拍卖行的观赏拍卖师,在他几十年的职业生活中几近从未失手,他最大的爱好就是收藏各类期间的女人肖像画。比利(唐纳德·萨瑟兰 Donald Sutherland 饰)帮助他用低价拍到心仪的画作,而年轻人罗伯特(吉姆·斯特吉斯 Jim Sturgess)则帮助他用技术手段判定古玩真伪。直到一天,一个奥秘的女顾客克莱尔(西尔维娅·侯克斯 Sylvia Hoeks 饰)带着多量的古玩遗产走进了他的生活,克莱尔宣称得了广场恐惧症是以从不露面,可是这类特别的交换方式却让奥德曼渐渐沉迷,他甚至乞助于罗伯特追求女人的方式。终究有一天奥德曼放弃了自己原本的生活,可是一个惊天的诡计正在静静期待着他。

获奖情况  

  第26届欧洲电影奖(2013)
  观众挑选奖(提名) 朱塞佩·托纳多雷
  最好影片(提名) 朱塞佩·托纳多雷
  最好导演(提名) 朱塞佩·托纳多雷
  最好编剧(提名) 朱塞佩·托纳多雷
  最好配乐 恩尼奥·莫里康内

  第57届意大利大卫奖(2013)
  青年大卫奖 朱塞佩·托纳多雷
  最好影片 阿尔图罗·帕利亚 / 伊莎贝拉·科库扎 / 朱塞佩·托纳多雷
  最好导演 朱塞佩·托纳多雷
  最好剧本(提名) 朱塞佩·托纳多雷
  最好制片人(提名) 阿尔图罗·帕利亚 / 伊莎贝拉·科库扎
  最好摄影(提名) 法比奥·扎马里翁
  最好音乐 恩尼奥·莫里康内
  最好美术设想 毛里齐奥·萨巴蒂尼 / 拉法埃拉·乔凡内蒂
  最好打扮设想 Maurizio Millenotti
  最好化装(提名) 路易吉·洛切蒂
  最好发型设想(提名) Stefano Ceccarelli
  最好剪辑(提名) 马西莫·夸各里安
  最好音效(提名) Gilberto Martinelli

  第4届豆瓣电影鑫像奖(2014)
  鑫豆单元 最轻易轻忽的好电影(提名)
  1. Video
  2. ID                                       : 1
  3. Format                                   : AVC
  4. Format/Info                              : Advanced Video Codec
  5. Format profile                           : High@L4
  6. Format settings, CABAC                   : Yes
  7. Format settings, ReFrames                : 4 frames
  8. Codec ID                                 : V_MPEG4/ISO/AVC
  9. Duration                                 : 2h 10mn
  10. Bit rate                                 : 9 200 Kbps
  11. Width                                    : 1 920 pixels
  12. Height                                   : 800 pixels
  13. Display aspect ratio                     : 2.40:1
  14. Frame rate mode                          : Constant
  15. Frame rate                               : 24.000 fps
  16. Color space                              : YUV
  17. Chroma subsampling                       : 4:2:0
  18. Bit depth                                : 8 bits
  19. Scan type                                : Progressive
  20. Bits/(Pixel*Frame)                       : 0.250
  21. Stream size                              : 8.21 GiB (84%)
  22. Writing library                          : x264 core 125 r2200 999b753
  23. Encoding settings                        : cabac=1 / ref=3 / deblock=1:0:0 / analyse=0x3:0x113 / me=umh / subme=6 / psy=1 / psy_rd=1.00:0.00 / mixed_ref=1 / me_range=12 / chroma_me=1 / trellis=2 / 8x8dct=1 / cqm=0 / deadzone=21,11 / fast_pskip=1 / chroma_qp_offset=-2 / threads=6 / lookahead_threads=1 / sliced_threads=0 / nr=0 / decimate=1 / interlaced=0 / bluray_compat=0 / constrained_intra=0 / bframes=3 / b_pyramid=2 / b_adapt=2 / b_bias=0 / direct=3 / weightb=1 / open_gop=0 / weightp=2 / keyint=240 / keyint_min=24 / scenecut=40 / intra_refresh=0 / rc_lookahead=40 / rc=2pass / mbtree=1 / bitrate=9200 / ratetol=1.0 / qcomp=0.50 / qpmin=10 / qpmax=51 / qpstep=4 / cplxblur=20.0 / qblur=0.5 / vbv_maxrate=24000 / vbv_bufsize=24000 / nal_hrd=none / ip_ratio=1.10 / aq=1:1.00
  24. Language                                 : English
  25. Default                                  : Yes
  26. Forced                                   : No

  27. Audio
  28. ID                                       : 2
  29. Format                                   : DTS
  30. Format/Info                              : Digital Theater Systems
  31. Mode                                     : 16
  32. Format settings, Endianness              : Big
  33. Codec ID                                 : A_DTS
  34. Duration                                 : 2h 10mn
  35. Bit rate mode                            : Constant
  36. Bit rate                                 : 1 509 Kbps
  37. Channel(s)                               : 6 channels
  38. Channel positions                        : Front: L C R, Side: L R, LFE
  39. Sampling rate                            : 48.0 KHz
  40. Bit depth                                : 24 bits
  41. Compression mode                         : Lossy
  42. Stream size                              : 1.38 GiB (14%)
  43. Language                                 : English
  44. Default                                  : Yes
  45. Forced                                   : No

  46. Text
  47. ID                                       : 3
  48. Format                                   : PGS
  49. Muxing mode                              : zlib
  50. Codec ID                                 : S_HDMV/PGS
  51. Codec ID/Info                            : Picture based subtitle format used on BDs/HD-DVDs
  52. Language                                 : English
  53. Default                                  : Yes
  54. Forced                                   : No
复制代码

最好出价 The.Best.Offer.2013.1080p.BluRay.x264.DTS-FGT 9.78GB-2.png
最好出价 The.Best.Offer.2013.1080p.BluRay.x264.DTS-FGT 9.78GB-3.png
最好出价 The.Best.Offer.2013.1080p.BluRay.x264.DTS-FGT 9.78GB-4.png
最好出价 The.Best.Offer.2013.1080p.BluRay.x264.DTS-FGT 9.78GB-5.png
最好出价 The.Best.Offer.2013.1080p.BluRay.x264.DTS-FGT 9.78GB-6.png
最好出价 The.Best.Offer.2013.1080p.BluRay.x264.DTS-FGT 9.78GB-7.png








回复

使用道具 举报

 成长值: 1890

级别:尊贵的会员

注册时间
2020-3-1
最后登录
2020-7-2
听众
4
收听
0
主题
0
蓝光币
447 枚
贡献
0 点
发表于 前天 19:24 | 显示全部楼层
楼主发贴辛苦了,谢谢楼主分享!我觉得中国高清电影网是注册对了!
回复

使用道具 举报

懒得打字嘛,点击右侧快捷回复 【右侧内容,后台自定义】
您需要登录后才可以回帖 登录 | 立即注册

本版积分规则

Archiver|手机版|小黑屋| 中国高清网 ( ICP备17007870号-2 ) |网站地图 

GMT+8, 2020-7-2 19:58 , Processed in 0.146043 second(s), 39 queries .

Powered by HDchina X3.4

Copyright 2017-2019©HDchina.All right reserved

返回顶部 联系我们