查看: 41|回复: 1

[喜剧片] 乡村小屋/求婚變奏曲 Cottage.Country.2013.UNRATED.1080p.BluRay.x264.DTS-FGT 6.32GB

[复制链接]

 成长值: 5940

级别:资源管理组

注册时间
2017-10-20
最后登录
2020-7-2
听众
1
收听
0
主题
97176
蓝光币
165661 枚
贡献
21555 点
发表于 前天 11:51 | 显示全部楼层 |阅读模式
村落小屋/求婚變奏曲 Cottage.Country.2013.UNRATED.1080p.BluRay.x264.DTS-FGT 6.32GB-1.png


译  名 村落小屋 / 求婚變奏曲
片  名 Cottage Country
年  代 2012
产  地 加拿大
类  别 笑剧 / 可骇 / 犯罪
语  言 英语
IMDb评分  5.6/10 from 3876 users
IMDb链接  https://www.imdb.com/title/tt2072933
豆瓣评分 0/10 from 0 users
豆瓣链接 https://movie.douban.com/subject/6959221/
导  演 Peter Wellington
编  剧 Jeremy Boxen
主  演 露茜·彭奇 Lucy Punch
       玛琳·阿克曼 Malin Akerman
       泰勒·莱伯恩 Tyler Labine
       Benjamin Ayres


标  签 加拿大 | 剧情 | 美国 | 搞笑 | 感动 | 笑剧 | 2013 | 黑暗天下

简  介  

  When a man accidentally kills his brother with an ax, his fiancée is determined not to let even murder stand in the way of their happiness.

获奖情况  

  第34届加拿大吉尼奖(2014)
  最好化装(提名)
  1. Video
  2. ID                                       : 1
  3. Format                                   : AVC
  4. Format/Info                              : Advanced Video Codec
  5. Format profile                           : High@L4
  6. Format settings, CABAC                   : Yes
  7. Format settings, ReFrames                : 4 frames
  8. Codec ID                                 : V_MPEG4/ISO/AVC
  9. Duration                                 : 1 h 31 min
  10. Bit rate                                 : 8 201 kb/s
  11. Width                                    : 1 920 pixels
  12. Height                                   : 1 080 pixels
  13. Display aspect ratio                     : 16:9
  14. Frame rate mode                          : Constant
  15. Frame rate                               : 24.000 FPS
  16. Color space                              : YUV
  17. Chroma subsampling                       : 4:2:0
  18. Bit depth                                : 8 bits
  19. Scan type                                : Progressive
  20. Bits/(Pixel*Frame)                       : 0.165
  21. Stream size                              : 5.23 GiB (83%)
  22. Writing library                          : x264 core 140 r2377 1ca7bb9
  23. Encoding settings                        : cabac=1 / ref=4 / deblock=1:-1:-1 / analyse=0x3:0x133 / me=umh / subme=7 / psy=1 / psy_rd=1.00:0.15 / mixed_ref=1 / me_range=16 / chroma_me=1 / trellis=1 / 8x8dct=1 / cqm=0 / deadzone=21,11 / fast_pskip=0 / chroma_qp_offset=-3 / threads=12 / lookahead_threads=2 / sliced_threads=0 / nr=0 / decimate=1 / interlaced=0 / bluray_compat=0 / constrained_intra=0 / bframes=3 / b_pyramid=2 / b_adapt=1 / b_bias=0 / direct=1 / weightb=1 / open_gop=0 / weightp=2 / keyint=250 / keyint_min=24 / scenecut=40 / intra_refresh=0 / rc_lookahead=40 / rc=crf / mbtree=1 / crf=20.0 / qcomp=0.60 / qpmin=0 / qpmax=69 / qpstep=4 / ip_ratio=1.40 / aq=1:1.00
  24. Language                                 : English
  25. Default                                  : Yes
  26. Forced                                   : No

  27. Audio
  28. ID                                       : 2
  29. Format                                   : DTS
  30. Format/Info                              : Digital Theater Systems
  31. Mode                                     : 16
  32. Format settings, Endianness              : Big
  33. Codec ID                                 : A_DTS
  34. Duration                                 : 1 h 31 min
  35. Bit rate mode                            : Constant
  36. Bit rate                                 : 1 509 kb/s
  37. Channel(s)                               : 6 channels
  38. Channel positions                        : Front: L C R, Side: L R, LFE
  39. Sampling rate                            : 48.0 kHz
  40. Frame rate                               : 93.750 FPS (512 spf)
  41. Bit depth                                : 24 bits
  42. Compression mode                         : Lossy
  43. Stream size                              : 986 MiB (15%)
  44. Language                                 : English
  45. Default                                  : No
  46. Forced                                   : No

  47. Menu
  48. 00:00:00.000                             : en:00:00:00.000
  49. 00:03:52.792                             : en:00:03:52.792
  50. 00:09:12.583                             : en:00:09:12.583
  51. 00:15:45.250                             : en:00:15:45.250
  52. 00:22:01.625                             : en:00:22:01.625
  53. 00:27:13.708                             : en:00:27:13.708
  54. 00:32:15.125                             : en:00:32:15.125
  55. 00:37:54.625                             : en:00:37:54.625
  56. 00:42:15.125                             : en:00:42:15.125
  57. 00:48:54.417                             : en:00:48:54.417
  58. 00:54:52.667                             : en:00:54:52.667
  59. 01:00:24.125                             : en:01:00:24.125
  60. 01:05:52.167                             : en:01:05:52.167
  61. 01:12:26.167                             : en:01:12:26.167
  62. 01:18:34.875                             : en:01:18:34.875
  63. 01:24:21.833                             : en:01:24:21.833
复制代码

村落小屋/求婚變奏曲 Cottage.Country.2013.UNRATED.1080p.BluRay.x264.DTS-FGT 6.32GB-2.png
村落小屋/求婚變奏曲 Cottage.Country.2013.UNRATED.1080p.BluRay.x264.DTS-FGT 6.32GB-3.png
村落小屋/求婚變奏曲 Cottage.Country.2013.UNRATED.1080p.BluRay.x264.DTS-FGT 6.32GB-4.png
村落小屋/求婚變奏曲 Cottage.Country.2013.UNRATED.1080p.BluRay.x264.DTS-FGT 6.32GB-5.png
村落小屋/求婚變奏曲 Cottage.Country.2013.UNRATED.1080p.BluRay.x264.DTS-FGT 6.32GB-6.png
村落小屋/求婚變奏曲 Cottage.Country.2013.UNRATED.1080p.BluRay.x264.DTS-FGT 6.32GB-7.png








回复

使用道具 举报

 成长值: 1890

级别:尊贵的会员

注册时间
2020-3-1
最后登录
2020-7-2
听众
4
收听
0
主题
0
蓝光币
447 枚
贡献
0 点
发表于 前天 19:25 | 显示全部楼层
楼主发贴辛苦了,谢谢楼主分享!我觉得中国高清电影网是注册对了!
回复

使用道具 举报

懒得打字嘛,点击右侧快捷回复 【右侧内容,后台自定义】
您需要登录后才可以回帖 登录 | 立即注册

本版积分规则

Archiver|手机版|小黑屋| 中国高清网 ( ICP备17007870号-2 ) |网站地图 

GMT+8, 2020-7-2 19:47 , Processed in 0.153723 second(s), 39 queries .

Powered by HDchina X3.4

Copyright 2017-2019©HDchina.All right reserved

返回顶部 联系我们