查看: 126|回复: 1

[剧情片] 公主自传 Autobiography.of.a.Princess.1975.1080p.BluRay.x264-BiPOLAR 8.50GB

[复制链接]

 成长值: 6040

级别:资源管理组

注册时间
2017-10-20
最后登录
2020-7-9
听众
1
收听
0
主题
97756
蓝光币
168812 枚
贡献
21715 点
发表于 2020-5-25 21:21:42 | 显示全部楼层 |阅读模式
公主自传 Autobiography.of.a.Princess.1975.1080p.BluRay.x264-BiPOLAR 8.50GB-1.png


译  名 公主自传
片  名 Autobiography of a Princess
年  代 1975
产  地 英国
类  别 剧情
语  言 英语
上映日期 1975-10-05
IMDb评分  5.9/10 from 202 users
IMDb链接  https://www.imdb.com/title/tt0072674
豆瓣评分 0/10 from 0 users
豆瓣链接 https://movie.douban.com/subject/1295103/
片  长 USA: 60 分钟
导  演 詹姆斯·伊沃里 James Ivory
编  剧 鲁丝·普罗厄·贾布瓦拉 Ruth Prawer Jhabvala
主  演 詹姆斯·梅森 James Mason
       玛德赫·杰佛里 Madhur Jaffrey


标  签 英国 | 1970s | 美国电影 | 殖民 | 历史 | obscure

简  介  

  暂无相关剧情先容
  1. Video
  2. ID                                       : 1
  3. Format                                   : AVC
  4. Format/Info                              : Advanced Video Codec
  5. Format profile                           : High@L4
  6. Format settings                          : CABAC / 5 Ref Frames
  7. Format settings, CABAC                   : Yes
  8. Format settings, Reference frames        : 5 frames
  9. Codec ID                                 : V_MPEG4/ISO/AVC
  10. Duration                                 : 58 min 19 s
  11. Bit rate                                 : 20.2 Mb/s
  12. Width                                    : 1 440 pixels
  13. Height                                   : 1 080 pixels
  14. Display aspect ratio                     : 4:3
  15. Frame rate mode                          : Constant
  16. Frame rate                               : 23.976 (24000/1001/189150) FPS
  17. Color space                              : YUV
  18. Chroma subsampling                       : 4:2:0
  19. Bit depth                                : 8 bits
  20. Scan type                                : Progressive
  21. Bits/(Pixel*Frame)                       : 0.541
  22. Stream size                              : 8.21 GiB (97%)
  23. Writing library                          : x264 core 160 r3000 33f9e14
  24. Encoding settings                        : cabac=1 / ref=5 / deblock=1:-3:-3 / analyse=0x3:0x133 / me=umh / subme=10 / psy=1 / psy_rd=1.20:0.00 / mixed_ref=1 / me_range=24 / chroma_me=1 / trellis=2 / 8x8dct=1 / cqm=0 / deadzone=21,11 / fast_pskip=1 / chroma_qp_offset=-2 / threads=18 / lookahead_threads=3 / sliced_threads=0 / nr=0 / decimate=1 / interlaced=0 / bluray_compat=0 / constrained_intra=0 / bframes=8 / b_pyramid=2 / b_adapt=2 / b_bias=0 / direct=3 / weightb=1 / open_gop=0 / weightp=2 / keyint=250 / keyint_min=23 / scenecut=40 / intra_refresh=0 / rc_lookahead=60 / rc=crf / mbtree=1 / crf=20.9 / qcomp=0.60 / qpmin=0 / qpmax=69 / qpstep=4 / ip_ratio=1.40 / aq=3:0.50
  25. Language                                 : English
  26. Default                                  : Yes
  27. Forced                                   : No
  28. Color range                              : Limited
  29. Matrix coefficients                      : BT.709

  30. Audio
  31. ID                                       : 2
  32. Format                                   : FLAC
  33. Format/Info                              : Free Lossless Audio Codec
  34. Codec ID                                 : A_FLAC
  35. Duration                                 : 58 min 19 s
  36. Bit rate mode                            : Variable
  37. Bit rate                                 : 672 kb/s
  38. Channel(s)                               : 1 channel
  39. Channel layout                           : C
  40. Sampling rate                            : 48.0 kHz
  41. Frame rate                               : 11.719 FPS (4096 SPF)
  42. Bit depth                                : 24 bits
  43. Compression mode                         : Lossless
  44. Stream size                              : 280 MiB (3%)
  45. Writing library                          : libFLAC 1.2.1 (UTC 2007-09-17)
  46. Language                                 : English
  47. Default                                  : Yes
  48. Forced                                   : No

  49. Text #1
  50. ID                                       : 3
  51. Format                                   : UTF-8
  52. Codec ID                                 : S_TEXT/UTF8
  53. Codec ID/Info                            : UTF-8 Plain Text
  54. Duration                                 : 54 min 3 s
  55. Bit rate                                 : 79 b/s
  56. Count of elements                        : 770
  57. Stream size                              : 31.4 KiB (0%)
  58. Title                                    : English
  59. Language                                 : English
  60. Default                                  : No
  61. Forced                                   : No

  62. Text #2
  63. ID                                       : 4
  64. Format                                   : UTF-8
  65. Codec ID                                 : S_TEXT/UTF8
  66. Codec ID/Info                            : UTF-8 Plain Text
  67. Duration                                 : 57 min 7 s
  68. Bit rate                                 : 76 b/s
  69. Count of elements                        : 806
  70. Stream size                              : 32.2 KiB (0%)
  71. Title                                    : English SDH
  72. Language                                 : English
  73. Default                                  : No
  74. Forced                                   : No

  75. Text #3
  76. ID                                       : 5
  77. Format                                   : PGS
  78. Muxing mode                              : zlib
  79. Codec ID                                 : S_HDMV/PGS
  80. Codec ID/Info                            : Picture based subtitle format used on BDs/HD-DVDs
  81. Duration                                 : 57 min 7 s
  82. Bit rate                                 : 15.7 kb/s
  83. Count of elements                        : 1612
  84. Stream size                              : 6.43 MiB (0%)
  85. Title                                    : English SDH
  86. Language                                 : English
  87. Default                                  : No
  88. Forced                                   : No

  89. Menu
  90. 00:00:00.000                             : en:00:00:00.000
  91. 00:05:38.838                             : en:00:05:38.838
  92. 00:10:07.524                             : en:00:10:07.524
  93. 00:14:38.920                             : en:00:14:38.920
  94. 00:20:36.694                             : en:00:20:36.694
  95. 00:27:16.593                             : en:00:27:16.593
  96. 00:33:37.682                             : en:00:33:37.682
  97. 00:40:38.102                             : en:00:40:38.102
  98. 00:50:38.953                             : en:00:50:38.953
  99. 00:56:41.356                             : en:00:56:41.356
复制代码








回复

使用道具 举报

 成长值: 2010

级别:尊贵的会员

注册时间
2020-3-1
最后登录
2020-7-9
听众
4
收听
0
主题
0
蓝光币
460 枚
贡献
0 点
发表于 2020-5-26 19:09:02 | 显示全部楼层
楼主发贴辛苦了,谢谢楼主分享!我觉得中国高清电影网是注册对了!
回复

使用道具 举报

懒得打字嘛,点击右侧快捷回复 【右侧内容,后台自定义】
您需要登录后才可以回帖 登录 | 立即注册

本版积分规则

Archiver|手机版|小黑屋| 中国高清网 ( ICP备17007870号-2 ) |网站地图 

GMT+8, 2020-7-9 21:58 , Processed in 0.214131 second(s), 40 queries .

Powered by HDchina X3.4

Copyright 2017-2019©HDchina.All right reserved

返回顶部 联系我们