查看: 45|回复: 2

[剧情片] 圣女贞德:监狱篇 Joan.the.Maid.2.The.Prisons.1994.720p.BluRay.x264-DEPTH 9.91GB

[复制链接]

 成长值: 5460

级别:资源管理组

注册时间
2017-10-20
最后登录
2020-5-28
听众
1
收听
0
主题
96235
蓝光币
152168 枚
贡献
20613 点
发表于 5 天前 | 显示全部楼层 |阅读模式
p2564605390.jpg 7 v/ G$ C* p! }$ ~1 s9 T

/ [: P% }1 y/ ~& K$ }" _译  名 圣女贞德:牢狱篇 / Joan the Maid 2.: The Prisons / 圣女贞德-牢狱篇
! O/ `" o# k0 X2 u片  名 Jeanne la Pucelle II - Les prisons. E1 w+ ]! L) K
年  代 1994( K$ p! Z2 S$ z! z
产  地 法国: `0 j9 D  \* ]% R4 |; e3 {3 b
类  别 剧情 / 列传 / 历史
9 R6 A- ?" `& e& p1 I! B语  言 法语
' v1 P6 v; O* u. R& I上映日期 1994-02-09(法国)4 \' l& ~: \2 V) `' O2 F* W
IMDb评分  7.3/10 from 481 users
' l* `' |' C$ [3 JIMDb链接  https://www.imdb.com/title/tt0107260
9 {1 h  V% ?8 {7 K# u豆瓣评分 7.9/10 from 101 users
; s% {1 s& J$ l7 T9 O( N豆瓣链接 https://movie.douban.com/subject/1765328/
: j3 u3 M4 V) m- t  Z) e( y( B片  长 176 分钟
, s% L' b% A& ^' [1 y导  演 雅克·里维特 Jacques Rivette0 B5 Q+ ^" V5 ]1 g/ |+ a
编  剧 帕斯卡尔·博尼策尔 Pascal Bonitzer / 克里斯蒂娜·洛朗 Christine Laurent7 A4 o3 I: v1 l3 h
主  演 桑德里娜·伯奈尔 Sandrine Bonnaire
7 [# G2 G/ t5 d) i       安德烈·马尔孔 André Marcon3 z3 Q1 C. U" j8 ^/ _: U9 l
       让-路易·里夏尔 Jean-Louis Richard% M4 ^5 p6 n: _4 L: V( o
9 t& V  j0 g( Z% X, ^

' u& i- t& G/ x5 R0 \5 \标  签 法国 | 法国电影 | JacquesRivette | Jacques_Rivette | 圣女贞德 | 1994 | 雅克·里维特 | 列传6 c7 |  l2 P  J% V& t- L

7 n4 i% m. ^" k' `$ v简  介  
( P" _6 @7 E, D) ?3 }
2 ]( g" |! j) O) W( Q7 K' Z  新浪潮宿将里维特的大志高文,分战争篇和牢狱篇高低两部。本片以德莱叶和布列松为方针,希望成就新的典范。 传奇历史事务「圣女贞德」发生时,以笔墨记叙事务传播进来的方式尚未提高,是以事务留下来的属于史实的原始记录很是的少。可是圣女贞德的故事,却不竭出现在文学作品、舞台剧、歌剧(神剧)与各类电影版本中,这背后一定是有它的缘由的。+ @7 @/ ^) |) \
  该片报告圣女贞德从被俘,到被审判,直至最初被正法的进程。在1430年5月23日的一场小范围战役中,贞德被俘虏了。当她命令军队退却回贡比涅城时,她处在军队的最前方以确保一切人都退回了城里,但就在这时贡比涅城由于惧怕英军随着闯入,没等到一切军队撤回便将城门关下,贞德与残剩的后卫军队便遭到了勃艮第人俘虏。最初法庭总结了贞德的12项罪行控告,但这些控告都和在审判中的记载相互冲突。在各类方式强逼之下,不识字的贞德没成心想到死刑的逼近,签下了一份她完全看不懂的公然弃绝书。贞德还有别的一个罪名:像汉子一样穿衣服。这在1431年可是一项大罪。贞德在疆场上穿的是甲胄,可是在军营里却穿的男装,据记录,她穿的是一种很短的灰色的束腰外衣,套在朱红布料做的、织的很密的长筒袜子上面。阿谁时辰还没有橡皮筋,男人的长统袜的顶端都开有成对的扣眼,中心用绳索串起来系紧。一般人用七种以上的花色来系这类袜子,而贞德用了20种,而且还系得很紧。主如果为了庇护自己“奥尔良少女”的身份。在牢狱里,贞德宣称,没有紧身的袜子,她感应很不服安,她要和教廷抗争到底,预备接管自己的命运。后来,她被套上一身长袍。行刑时,她没有绝笔,只是向仇敌发出了嘲笑。死刑于1431年5月30日在鲁昂停止,目击者描写了死刑的那一幕。贞德被绑在火刑柱上,她不竭的祈祷著,并向旁边的神父请求让她握著一个小十字架。
/ Z% z2 ]% X" E9 u( r, E
  1. Video
    8 _& m, ?1 d3 u4 H% V. N) h4 A  V
  2. ID                                       : 1% s9 e- d' }$ o2 }
  3. Format                                   : AVC
    ) K# h+ ?6 J4 {% s1 d
  4. Format/Info                              : Advanced Video Codec
    6 H9 H9 U- `) F
  5. Format profile                           : High@L4
    1 ~: q- G7 F! I3 u$ g* c
  6. Format settings                          : CABAC / 9 Ref Frames
    / B/ v; q' C+ Y4 E
  7. Format settings, CABAC                   : Yes
    1 V7 t) t6 q9 V  S3 T# j$ a
  8. Format settings, Reference frames        : 9 frames( ?5 r2 C) t' X! _% Y& y
  9. Codec ID                                 : V_MPEG4/ISO/AVC
    # j( A2 i. c0 B) C9 t
  10. Duration                                 : 2 h 56 min! `) S$ c) Z/ `8 n7 ~
  11. Bit rate                                 : 7 390 kb/s8 n& @  O7 S4 Y6 c  D
  12. Width                                    : 1 280 pixels
    7 q* ]7 d& R7 E" D4 Z9 |
  13. Height                                   : 690 pixels
    $ y! Q1 f) X1 L: O' ?/ N( f
  14. Display aspect ratio                     : 1.85:1
    6 J1 X5 @: k" p) c( h
  15. Frame rate mode                          : Constant0 v, h+ M3 l5 u' }
  16. Frame rate                               : 24.000 FPS! h- g3 p6 n& y  `% h7 \& f, D
  17. Color space                              : YUV
    " W6 B% j/ E0 U: p  ^. G: q
  18. Chroma subsampling                       : 4:2:0
    ; }- @- {$ m) ?/ f5 X+ Y% p
  19. Bit depth                                : 8 bits! _. a6 P7 \0 Z5 P7 f7 ]1 f
  20. Scan type                                : Progressive
    * c2 B" \4 c' J' W! G
  21. Bits/(Pixel*Frame)                       : 0.349& q7 a- ?/ E5 M0 M
  22. Stream size                              : 9.11 GiB (92%)* Q: J( ^/ r2 c  F, h- s
  23. Writing library                          : x264 core 160 r3000 33f9e14
    ; `9 ]& L3 d) ?
  24. Encoding settings                        : cabac=1 / ref=9 / deblock=1:-3:-3 / analyse=0x3:0x133 / me=umh / subme=10 / psy=1 / psy_rd=1.00:0.15 / mixed_ref=1 / me_range=32 / chroma_me=1 / trellis=2 / 8x8dct=1 / cqm=0 / deadzone=21,11 / fast_pskip=0 / chroma_qp_offset=-3 / threads=22 / lookahead_threads=3 / sliced_threads=0 / nr=0 / decimate=1 / interlaced=0 / bluray_compat=0 / constrained_intra=0 / bframes=8 / b_pyramid=2 / b_adapt=2 / b_bias=0 / direct=3 / weightb=1 / open_gop=0 / weightp=2 / keyint=250 / keyint_min=24 / scenecut=40 / intra_refresh=0 / rc=crf / mbtree=0 / crf=17.0 / qcomp=0.60 / qpmin=0 / qpmax=69 / qpstep=4 / ip_ratio=1.40 / pb_ratio=1.30 / aq=3:0.805 s4 \4 v+ Q) d
  25. Default                                  : Yes
    ( p* H) Z7 u6 }% M
  26. Forced                                   : No
    0 ]! e6 F; i& P, a; V( Q) R

  27. 8 b0 o: `5 k, V4 {
  28. Audio
    : Q. K# z; |, w" }
  29. ID                                       : 2( H& s( f$ G  N; H
  30. Format                                   : AC-3
    7 g- P! k) M+ p( m9 c& \
  31. Format/Info                              : Audio Coding 3
    9 v6 D: C* r2 b6 Q* g0 g
  32. Commercial name                          : Dolby Digital  Q+ z# Y* N" A4 G( T) |8 M
  33. Codec ID                                 : A_AC31 A! }& u, S; W: n! b% E' t  `
  34. Duration                                 : 2 h 56 min
    1 z) M  A1 H0 @$ `
  35. Bit rate mode                            : Constant
    . _# m" O! U8 Z+ F
  36. Bit rate                                 : 640 kb/s
    . O$ Z# H! ^3 W- O
  37. Channel(s)                               : 6 channels2 H2 R& b3 y4 q& k0 b
  38. Channel layout                           : L R C LFE Ls Rs4 B% n" `6 }0 V* a
  39. Sampling rate                            : 48.0 kHz
    6 X8 k4 }  B+ k
  40. Frame rate                               : 31.250 FPS (1536 SPF)5 [9 P2 y* x8 S1 J% V
  41. Bit depth                                : 16 bits2 s6 \7 ^3 v# Z8 ~" U' I. B
  42. Compression mode                         : Lossy" T' a- r/ @, W1 d; p
  43. Stream size                              : 808 MiB (8%)
    ' h" |4 p' _+ u% `) r
  44. Language                                 : French
    4 C4 N# h+ i8 v
  45. Service kind                             : Complete Main/ v' K* J1 [8 T9 R. S. Q
  46. Default                                  : Yes4 e8 ~# S; b* {
  47. Forced                                   : No6 w- V4 l( o6 ^* H2 Q- \
  48. . A' T; K  M& }7 i, x* \
  49. Text #1
    5 {  D0 p1 V# j) r8 B) @2 j' i
  50. ID                                       : 37 W7 E5 Y2 V2 ^
  51. Format                                   : UTF-8
    5 k+ p: g4 E' G" u
  52. Codec ID                                 : S_TEXT/UTF8
    : s9 X) Q$ K6 L2 b; K( X2 o% D
  53. Codec ID/Info                            : UTF-8 Plain Text
    % P1 Y9 k9 x5 c: L" \. d' P5 L4 h
  54. Duration                                 : 2 h 49 min
    / M" L6 {: {% \
  55. Bit rate                                 : 35 b/s- ?5 M9 u7 a' }, k5 [; V3 X
  56. Count of elements                        : 1551
    9 R) a3 J, X1 V. T1 I
  57. Stream size                              : 44.6 KiB (0%)
    9 w4 v* W* V: T( C$ W+ r, ]+ s# h
  58. Language                                 : English
    ) n* y7 X) u+ u
  59. Default                                  : Yes
    / A4 F; U9 u. G) b7 c
  60. Forced                                   : Yes
    + v2 M, I3 m! z: v

  61. $ W9 T- V2 I$ L  U7 Y, {
  62. Text #2
    ! W5 b7 q$ s# N3 l+ c1 y( y4 c
  63. ID                                       : 4
    ( w( \  G/ [7 x9 Y, W
  64. Format                                   : PGS3 F" h& w7 ^9 _+ u2 U: W
  65. Muxing mode                              : zlib
    - h# F  h' U' ?
  66. Codec ID                                 : S_HDMV/PGS( J# r+ p  q# t1 q0 A# G( [
  67. Codec ID/Info                            : Picture based subtitle format used on BDs/HD-DVDs
    : |" |$ [- q+ [& G# t
  68. Duration                                 : 2 h 49 min
    ' w6 z7 H' |% s; e' i9 L! s
  69. Bit rate                                 : 25.9 kb/s
    / \$ J) y8 T9 V& W" n
  70. Count of elements                        : 3102
    / O+ t! G  S0 m% `9 n! G( a& M& r  Q
  71. Stream size                              : 31.4 MiB (0%)
    ' o- b/ t1 \3 a% a& D4 Y. R" m
  72. Language                                 : English) s1 O/ ~7 O. U7 t7 }
  73. Default                                  : No0 }9 K. A7 Y" t7 ]; J) E9 f
  74. Forced                                   : No
      y3 E+ p1 t/ p# D

  75. # A& ?; g- D) g" J( e) O
  76. Menu
    7 l6 d5 B/ k) g1 f0 m
  77. 00:00:00.000                             : en:Chapter 01
    - m3 \; j: J7 u8 W7 r% B0 O
  78. 00:11:49.583                             : en:Chapter 02
    * p. u' y8 @! \; T8 P$ I2 B
  79. 00:20:07.250                             : en:Chapter 039 L# x8 u* l1 C; Z# J! c) B
  80. 00:32:02.792                             : en:Chapter 04
    ' o. M: W1 U9 o9 K# C7 o- v
  81. 00:40:17.083                             : en:Chapter 05& j2 N+ `+ @+ d: j
  82. 00:51:04.750                             : en:Chapter 06% Y2 r5 s% M7 F* ]8 n
  83. 01:01:10.708                             : en:Chapter 07
    3 P& s% d* w7 }3 j$ b6 k6 S' }( X
  84. 01:09:19.250                             : en:Chapter 08
    . t$ u/ x3 P/ q9 ~, X
  85. 01:21:04.542                             : en:Chapter 098 _, e8 x6 o5 X$ X9 X
  86. 01:30:27.083                             : en:Chapter 10& o, x7 h9 N9 b0 \. N& {
  87. 01:40:37.458                             : en:Chapter 11" D/ N# @- k: c( K  v! O! d
  88. 01:52:22.083                             : en:Chapter 12
    6 {7 q4 y- P8 R* W' S/ d
  89. 02:01:47.125                             : en:Chapter 13
    # G8 b" q& l3 E! M% W  V
  90. 02:09:50.250                             : en:Chapter 14
    0 O5 Z+ z  p/ |$ `
  91. 02:18:14.208                             : en:Chapter 15
    $ s% s" N' ?, a3 a: k
  92. 02:28:29.417                             : en:Chapter 16
    9 C$ ~* V7 K- D: c+ w6 J
  93. 02:41:20.417                             : en:Chapter 17& S' u& m1 a, p$ o& }; J
  94. 02:48:12.208                             : en:Chapter 18
复制代码

; c7 R5 r7 ?( p" l' O# U 圣女贞德:牢狱篇 Joan.the.Maid.2.The.Prisons.1994.720p.BluRay.x264-DEPTH 9.91GB-1.png
& J; h3 w* K: p* Q7 d2 K, l5 _& N( }/ ~" t
9 D" t9 b5 v. E; m7 g

+ s. v, B: Q5 x
. [- z1 ]6 n$ b! U' R( v+ d# D' d2 a( B: B: s+ F

' d  i' ?: ~  q/ p0 W+ _
回复

使用道具 举报

 成长值: 1290

级别:尊贵的会员

注册时间
2020-3-1
最后登录
2020-5-28
听众
2
收听
0
主题
0
蓝光币
331 枚
贡献
0 点
发表于 4 天前 | 显示全部楼层
楼主发贴辛苦了,谢谢楼主分享!我觉得中国高清电影网是注册对了!
回复

使用道具 举报

懒得打字嘛,点击右侧快捷回复 【右侧内容,后台自定义】
您需要登录后才可以回帖 登录 | 立即注册

本版积分规则

Archiver|手机版|小黑屋| 中国高清网 ( ICP备17007870号-2 ) |网站地图 

GMT+8, 2020-5-28 20:28 , Processed in 0.213876 second(s), 39 queries .

Powered by HDchina X3.4

Copyright 2017-2019©HDchina.All right reserved

返回顶部 联系我们