查看: 66|回复: 2

[动作片] 虎胆追凶/猛龙怪客 Death.Wish.2018.UNCUT.720p.BluRay.x264-ViRGO 5.91GB

[复制链接]

 成长值: 5460

级别:资源管理组

注册时间
2017-10-20
最后登录
2020-5-28
听众
1
收听
0
主题
96235
蓝光币
152128 枚
贡献
20613 点
发表于 5 天前 | 显示全部楼层 |阅读模式
虎胆追凶/猛龙怪客 Death.Wish.2018.UNCUT.720p.BluRay.x264-ViRGO 5.91GB-1.png
& q% g+ S; ], _/ n9 a# `, N/ R0 y$ s, x& \
译  名 虎胆追凶 / 猛龙怪客
, n* \: w4 K: {# K8 c/ X2 ^# U片  名 Death Wish  w1 H) z8 }' y0 q" `
年  代 20180 \0 s: K' L$ A
产  地 美国
% S: p: }" I, S5 u2 g: G类  别 行动 / 惊悚 / 犯罪8 _; G" j% [& ^/ n1 f
语  言 英语8 N* {1 l0 P% `4 V6 s% u2 r# F
上映日期 2018-03-02(美国) / 2018-09-21(中国大陆)1 z% B% ~5 s# m  Z3 s& A
IMDb评分  6.4/10 from 58939 users/ y0 e, }) ?( r! P! }) ~
IMDb链接  https://www.imdb.com/title/tt11374508 S. _# K1 z( @; e9 X
豆瓣评分 6.5/10 from 22550 users: u' r9 Z( r5 y1 t  R6 l( e
豆瓣链接 https://movie.douban.com/subject/3078549/
' K' Z: _0 U! V8 u片  长 97分钟(中国)- P/ }" Q0 \6 E) o) t9 p6 g
导  演 伊莱·罗斯 Eli Roth; w) U  e1 v- q/ ~. v" }8 M
编  剧 乔·卡纳汉 Joe Carnahan / 布赖恩·加菲尔德 Brian Garfield / 温德尔·梅斯 Wendell Mayes
1 r2 j& x9 ~, `: R( O8 w9 n主  演 布鲁斯·威利斯 Bruce Willis% M! q7 \) }. D$ T  O4 ~
       文森特·多诺费奥 Vincent D'Onofrio1 g4 C" T1 ]* H( Y0 {. [5 ~" s( T
       伊丽莎白·苏 Elisabeth Shue! P/ J: [4 h+ T3 \: l
       迪恩·诺里斯 Dean Norris( G% d4 |, U) x5 O9 L
       博·纳普 Beau Knapp
- {  d; a& k1 I% S1 R. ~       金伯莉·伊丽丝 Kimberly Elise3 }2 n  t/ s; \/ n0 s# B5 t' u
       卡米拉·莫罗 Camila Morrone
( x) A1 k: j) v- `1 m4 S       兰·卡琉 Len Cariou& f2 o: |" ]! N# L% W; l- b
       杰克·凯西 Jack Kesy
7 g% D$ G* \+ K" Z" o& U& C4 @) n       罗尼·吉恩·贝尔维斯 Ronnie Gene Blevins: M2 v5 g0 N0 d7 c+ _2 {9 @
       可比·毕丝·布兰顿 Kirby Bliss Blanton
; V6 P* ]# o+ u+ A       安德里亚斯·艾波吉斯 Andreas Apergis
2 q' X) H/ o4 {& T+ x% @4 j       伊恩·马休斯 Ian Matthews
1 u: d! }& J: [: U; Y/ n       温迪·古逊 Wendy Crewson
. h6 O1 P9 @0 L/ n       瓦罗娜·塞茨瓦埃洛 Warona Setshwaelo7 c2 |% G2 s& M1 U( s
       路易斯·奥利瓦 Luis Oliva
0 w+ @! C  s- m8 N+ M       杰森·卡弗利尔 Jason Cavalier
- C8 W" ]8 V. P3 Y       夸西·宋桂 Kwasi Songui% Y7 s7 l. J' E* p$ G8 E
* x/ d  @: _+ W; O* P3 M

* N9 P' r2 \, {1 x# K8 `标  签 犯罪 | 美国 | 行动 | 暴力 | 复仇 | 2018 | 惊悚 | 翻拍
1 R* B" K' x% Y. y2 Z/ N' |
, o$ I# z1 f! K, {4 z简  介  - B6 G$ Q& k: E1 S; L
2 ]5 O% X+ N1 b, j% u
  在枪案频发的芝加哥,保罗原本是一个温文儒雅仁心高手的医生,具有一个幸运完竣的家庭。一场突如其来的恶运让他的妻女惨遭大盗凌辱,女儿昏迷不醒,爱妻更是以损失生命,与他天人永隔。但是,城市里连串的凶案让警方一筹莫展,各种缘由使得保罗的案件没法了案,本应遭到制裁的凶徒清闲法外。
  o, Z6 W" }% g, w- s( n  在解体和失望中,保罗的人生代价观完全改变。为了替家人复仇,保罗决议孤身寻凶,自动反击,单枪匹马在城市陌头制裁暴力犯罪。警方和公共对这位蔓延正义的奥秘“帽兜男”众说纷繁,争辩不休。在“保护天使”的外衣下,保罗终极迎来了和仇人的生死决战。1 m( x' ]) k7 ^4 R* o" v
6 U8 |; f9 p! K8 O" ]
获奖情况  $ J: l0 X5 H0 K  A- }6 y" j

8 v  L4 B, y$ A8 m6 O  第39届金酸莓奖(2019)+ \6 G0 D+ k9 W( f& v. P8 S
  最差男配角(提名) 布鲁斯·威利斯4 i( \' D3 I6 {! r# }
  最差前传、重拍、恶搞及续集电影(提名)
: t  [+ L  k/ O
  1. Video
    ! t+ r9 @; g0 {
  2. ID                                       : 1
    7 h/ B! x" W5 S0 r7 W
  3. Format                                   : AVC: @. L! E& p4 e6 D/ h) b
  4. Format/Info                              : Advanced Video Codec
    + a' L  M! `! C# v# T* |$ H
  5. Format profile                           : High@L4
    3 z' R, l8 M+ h+ T. K1 H8 q
  6. Format settings                          : CABAC / 8 Ref Frames6 v! _3 x: g6 m- p* X
  7. Format settings, CABAC                   : Yes
    / d* T6 R$ f, O) y
  8. Format settings, Reference frames        : 8 frames
    ! [+ V9 J( x5 R* x+ S* j
  9. Codec ID                                 : V_MPEG4/ISO/AVC' M( V( i8 S2 ]: a! C/ B8 ~, d
  10. Duration                                 : 1 h 47 min
    / m% @3 {2 w  i
  11. Bit rate                                 : 7 052 kb/s
    " U0 a; }& M; v. E% d0 @
  12. Width                                    : 1 280 pixels
    , u0 T8 z4 p, O* p0 O7 z1 [
  13. Height                                   : 534 pixels
      ]+ q, j1 V: Q' y5 x
  14. Display aspect ratio                     : 2.40:1; A! @! Z4 C: Q  {
  15. Frame rate mode                          : Constant
    1 R0 N7 e6 {6 v
  16. Frame rate                               : 23.976 (24000/1001/189150) FPS
    % k& }5 {# r+ r  c9 G
  17. Color space                              : YUV
    ; v; N0 R9 |7 [8 l6 [" p6 Q
  18. Chroma subsampling                       : 4:2:0
    $ E# o& q  Q# `' M: a) y" B
  19. Bit depth                                : 8 bits" M" V/ x4 C6 y9 F8 F2 \5 H
  20. Scan type                                : Progressive
    : _% y; H, t# I  c3 |) G
  21. Bits/(Pixel*Frame)                       : 0.4309 R1 X% Q) d2 C
  22. Stream size                              : 5.32 GiB (90%)
    ( m6 e0 C( U+ q4 \+ O) E( N8 y5 c
  23. Writing library                          : x264 core 160 r3000 33f9e14" m: @4 k# \2 y9 Y* K+ L
  24. Encoding settings                        : cabac=1 / ref=8 / deblock=1:0:0 / analyse=0x3:0x133 / me=umh / subme=9 / psy=1 / psy_rd=1.00:0.00 / mixed_ref=1 / me_range=16 / chroma_me=1 / trellis=2 / 8x8dct=1 / cqm=0 / deadzone=21,11 / fast_pskip=1 / chroma_qp_offset=-2 / threads=12 / lookahead_threads=1 / sliced_threads=0 / nr=0 / decimate=1 / interlaced=0 / bluray_compat=0 / constrained_intra=0 / bframes=3 / b_pyramid=2 / b_adapt=2 / b_bias=0 / direct=3 / weightb=1 / open_gop=0 / weightp=2 / keyint=240 / keyint_min=23 / scenecut=40 / intra_refresh=0 / rc_lookahead=60 / rc=crf / mbtree=1 / crf=12.8 / qcomp=0.60 / qpmin=0 / qpmax=69 / qpstep=4 / vbv_maxrate=62500 / vbv_bufsize=78125 / crf_max=0.0 / nal_hrd=none / filler=0 / ip_ratio=1.40 / aq=1:1.00
    1 |3 k" m5 j- S
  25. Language                                 : English; T& _8 y* P4 f1 R& `( S$ Y6 J
  26. Default                                  : Yes7 n6 u. q& W4 y/ U% @
  27. Forced                                   : No1 z& X( C& `7 N' t" z# l
  28. $ v9 A( @" \$ k* d+ v8 d5 D
  29. Audio #1
    1 c; X: Y- k5 N# f2 p9 o4 }! O
  30. ID                                       : 2& X6 h! {5 ~" C. c' _' {
  31. Format                                   : AC-30 u* [* R8 G# C3 Q
  32. Format/Info                              : Audio Coding 3
    ! j' P( K5 \" @" h
  33. Commercial name                          : Dolby Digital
    / b( c' n1 B' X/ }3 j# L
  34. Codec ID                                 : A_AC3
    0 L; I! E0 g: w
  35. Duration                                 : 1 h 47 min- l) u- B1 E+ q: W0 L
  36. Bit rate mode                            : Constant1 u  F1 Y! L9 v8 L8 A  E
  37. Bit rate                                 : 640 kb/s
    1 z2 @$ `1 D* N- L+ F0 ~
  38. Channel(s)                               : 6 channels
    # U- H3 l1 `  \* |
  39. Channel layout                           : L R C LFE Ls Rs
    ; n$ H- N4 \2 o" u" ^' I9 B; q! j
  40. Sampling rate                            : 48.0 kHz! S" s' v  u: F/ b# m" }6 b
  41. Frame rate                               : 31.250 FPS (1536 SPF)3 c1 g; \3 Q! y5 ~- \
  42. Bit depth                                : 16 bits
    * s1 L% l5 B% R0 Y4 P2 N
  43. Compression mode                         : Lossy0 ~" z( d- }8 f/ B
  44. Stream size                              : 494 MiB (8%): C0 c: H. i+ W% k( X
  45. Language                                 : English4 D* h  M3 p$ F# |6 X* y
  46. Service kind                             : Complete Main
    ) L4 S. A, ~" C* r0 T
  47. Default                                  : Yes; L# B4 ~% ^+ w* T6 o
  48. Forced                                   : No4 G' T- @5 s2 `: ]' g! x

  49. # c4 [) Q$ \: c) n* n' d
  50. Audio #2
    ( `, C9 B: p9 Y8 t; Z) ~
  51. ID                                       : 3
    : a& z8 d0 F5 J- ~1 T0 q
  52. Format                                   : AAC LC; L0 G, t5 w0 e8 a! Y2 N+ A' m" P
  53. Format/Info                              : Advanced Audio Codec Low Complexity) ^% L' i- d- s! k
  54. Codec ID                                 : A_AAC-2: Z* T: a8 B+ k
  55. Duration                                 : 1 h 47 min
    % h; `& s+ P/ d0 @4 y
  56. Bit rate                                 : 124 kb/s% S- j( T( y& {7 f# h' d
  57. Channel(s)                               : 2 channels
    ! B& ~4 D4 A& i2 T' a6 M+ n  `
  58. Channel layout                           : L R
    - I6 w0 w8 {9 h, s$ s
  59. Sampling rate                            : 48.0 kHz
    % A2 E; Y8 j1 y' y  n" d
  60. Frame rate                               : 46.875 FPS (1024 SPF)
    + ~, Q8 ?3 e  S$ }' t) K% J
  61. Compression mode                         : Lossy
    9 }# L+ ~; A# G* v
  62. Delay relative to video                  : 20 ms+ d# j) D' r6 ^; f* w
  63. Stream size                              : 96.1 MiB (2%)6 X4 W1 d6 g+ O- n3 J: J
  64. Title                                    : Commentary
    . |+ A3 l! k0 j; Y9 s
  65. Language                                 : English/ X7 O+ i$ o' t! h: |! A5 |
  66. Default                                  : No
    & J  Y( h, x# T$ m. O/ E
  67. Forced                                   : No$ |5 `; ~1 Q3 P) ?/ I: z

  68. 4 _3 c) X. y1 F7 H4 i# k* U6 s
  69. Text #1
    / T$ x" |( o3 L( O. a) v9 b
  70. ID                                       : 4
    % M3 s0 M9 E+ N$ k
  71. Format                                   : UTF-8
    9 y8 U$ N3 O% r) q# M6 s
  72. Codec ID                                 : S_TEXT/UTF84 P6 d3 _5 p8 G% H  I/ s9 K# x
  73. Codec ID/Info                            : UTF-8 Plain Text- c& ?% @# }$ V2 I
  74. Duration                                 : 1 h 47 min/ E8 w" d3 e" p) s3 I* i
  75. Bit rate                                 : 61 b/s+ e& M0 }8 Z5 j4 [+ i6 o5 `
  76. Count of elements                        : 1361
    ) i" Z! Q5 {5 V
  77. Stream size                              : 48.3 KiB (0%)4 v; T3 S, e% L4 g5 E9 O% Q+ U
  78. Language                                 : English- g2 A3 e' X# m' A
  79. Default                                  : No
    ; Y: a8 [3 }" |6 ?7 J  M
  80. Forced                                   : No, T8 v- z6 o: ^  s7 a
  81. , _1 s" A2 p0 V: w3 S) T1 x
  82. Text #2
    0 G) i# T) u- _3 Z: k1 q
  83. ID                                       : 5
    8 @% W$ R1 a6 O& A% A9 A/ |7 P' w
  84. Format                                   : PGS
    # r1 r$ W4 V3 G' |! s: ?
  85. Muxing mode                              : zlib
    ; k. p. v6 \1 E# `0 o
  86. Codec ID                                 : S_HDMV/PGS& k) C& ~  B; S( ~, F2 ?
  87. Codec ID/Info                            : Picture based subtitle format used on BDs/HD-DVDs+ Z# W8 p: _& }) \* P
  88. Duration                                 : 1 h 47 min
    : I4 T' r$ Q; d" l2 W
  89. Bit rate                                 : 17.8 kb/s+ c& q1 M( C1 j* W& M
  90. Count of elements                        : 2722  [, ?% B2 }! l8 D* g: s
  91. Stream size                              : 13.6 MiB (0%)$ g1 R1 R/ T1 X, G, o9 c
  92. Language                                 : English
    0 `/ K, f' w( I
  93. Default                                  : No
    2 S' D1 e" k! ?9 R$ l
  94. Forced                                   : No3 U$ X8 A  }: l
  95. $ Z8 U, V7 |, e2 k# v" D2 u
  96. Menu# B7 f- b' r2 f' Z" N
  97. 00:00:00.000                             : en:00:00:00.000
    8 m, U8 K" X2 I8 i
  98. 00:09:24.355                             : en:00:09:24.355
    ; |. g8 h5 Q  L7 }5 c5 W
  99. 00:17:21.624                             : en:00:17:21.624
    ! b' b' g- D* M4 J* ?8 z1 Q; F9 J3 U6 w
  100. 00:25:07.256                             : en:00:25:07.256; M3 L7 x/ w  [. r
  101. 00:33:19.080                             : en:00:33:19.0808 Y* d+ u) ]" ~6 v2 a5 J; a
  102. 00:41:52.552                             : en:00:41:52.552
    * }# A/ h& P" `/ r6 C
  103. 00:50:11.133                             : en:00:50:11.1330 o* q) A) T) C1 I& C
  104. 00:58:51.445                             : en:00:58:51.4453 q0 l# ^1 ~, M( y# X( {' Q
  105. 01:08:19.637                             : en:01:08:19.637
    8 u% a  g. C0 P
  106. 01:13:55.806                             : en:01:13:55.8065 ~/ z) D6 R6 c4 u
  107. 01:23:41.224                             : en:01:23:41.224
    2 C  I$ `2 g6 U+ o7 c7 F- h
  108. 01:32:51.566                             : en:01:32:51.566
复制代码
% t# R6 v) j/ g
虎胆追凶/猛龙怪客 Death.Wish.2018.UNCUT.720p.BluRay.x264-ViRGO 5.91GB-2.png
& V1 ^; w; ~) H. [4 j1 Y+ t; n

- E$ s  o' r! x
9 E  k0 e- N; m" [" j
+ y3 O: s0 v7 F0 G5 R  m$ P; z4 F- h* c6 B2 }2 n* G& C
5 d6 P4 h& L0 L( H  c; M& b
回复

使用道具 举报

 成长值: 1290

级别:尊贵的会员

注册时间
2020-3-1
最后登录
2020-5-28
听众
2
收听
0
主题
0
蓝光币
331 枚
贡献
0 点
发表于 4 天前 | 显示全部楼层
楼主发贴辛苦了,谢谢楼主分享!我觉得中国高清电影网是注册对了!
回复

使用道具 举报

级别:荣升主角 Lv.5

注册时间
2019-4-11
最后登录
2020-5-28
听众
14
收听
0
主题
0
蓝光币
273 枚
贡献
0 点
发表于 3 天前 | 显示全部楼层

/ q# B% o5 c+ K9 E. O+ ^' t这个帖子不回对不起自己!我想我是一天也不能离开中国高清电影网
回复

使用道具 举报

懒得打字嘛,点击右侧快捷回复 【右侧内容,后台自定义】
您需要登录后才可以回帖 登录 | 立即注册

本版积分规则

Archiver|手机版|小黑屋| 中国高清网 ( ICP备17007870号-2 ) |网站地图 

GMT+8, 2020-5-28 19:19 , Processed in 0.160874 second(s), 39 queries .

Powered by HDchina X3.4

Copyright 2017-2019©HDchina.All right reserved

返回顶部 联系我们