查看: 307|回复: 4

[10bit.HDR] 隐形人/隐形客 The.Invisible.Man.2020.2160p.UHD.BluRay.X265.10bit.HDR.TrueHD.7.1.Atmos-WhiteRhino 12.10GB

[复制链接]

 成长值: 5460

级别:资源管理组

注册时间
2017-10-20
最后登录
2020-5-28
听众
1
收听
0
主题
96229
蓝光币
152008 枚
贡献
20607 点
发表于 5 天前 | 显示全部楼层 |阅读模式
隐形人/隐形客 The.Invisible.Man.2020.2160p.UHD.BluRay.X265.10bit.HDR.TrueHD.7.1.Atmos-WhiteRhino 12.10GB-1.png

译  名 隐形人 / 隐形客(港) / 隐身人
片  名 The Invisible Man
年  代 2020
产  地 澳大利亚 / 美国 / 加拿大 / 英国
类  别 科幻 / 惊悚 / 可骇
语  言 英语
上映日期 2020-02-28(美国)
IMDb评分  7.2/10 from 90442 users
IMDb链接  https://www.imdb.com/title/tt1051906
豆瓣评分 7.3/10 from 111456 users
豆瓣链接 https://movie.douban.com/subject/2364086/
片  长 124分钟
导  演 雷·沃纳尔 Leigh Whannell
编  剧 雷·沃纳尔 Leigh Whannell / 赫伯特·乔治·威尔斯 H.G. Wells
主  演 伊丽莎白·莫斯 Elisabeth Moss
       奥利弗·杰森-科恩 Oliver Jackson-Cohen
       阿尔迪斯·霍吉 Aldis Hodge
       迈克尔·多曼 Michael Dorman
       斯托姆·瑞德 Storm Reid
       本尼迪克·哈迪 Benedict Hardie
       哈丽特·戴尔 Harriet Dyer
       瑞妮·林 Renee Lim
       布莱恩·米根 Brian Meegan
       薇薇安·格里尔 Vivienne Greer
       尼古拉斯·霍普 Nicholas Hope
       克利夫·威廉姆斯 Cleave Williams
       萨姆·史姑娘 Sam Smith
       扎拉·迈克尔斯 Zara Michales
       纳许·埃哲顿 Nash Edgerton
       安东尼·布兰登·黄 Anthony Brandon Wong
       阿玛莉·沃德 Amali Ward
       迈克尔·诺特 Michael Knott


标  签 惊悚 | 悬疑 | 可骇 | 科幻 | 美国 | 犯罪 | 2020 | 剧情

简  介  

  西西莉亚(伊丽莎白·莫斯 Elisabeth Moss 饰)再也想不到,已经将自己迷得颠三倒四的英俊汉子阿德里安(奥利弗·杰森-科恩 Oliver Jackson-Cohen 饰),现在会成为噩梦的始作俑者。在和自己恋爱后没多久,阿德里安便起头对西西莉亚停止精神和精神上的两重控制,终究,忍无可忍的西西莉亚在一天深夜用安宁将阿德里安迷晕,成功的逃出了魔窟。
  以后,西西莉亚震动的收到了阿德里安自杀的消息了,她几近不敢相信,这个魔头真的从自己的生活中彻完全底的消失了。西西莉亚的疑虑并不是空穴来风,在她生活的角角落落中,似乎都有一个无形的影子在窥视着她,诡计触碰她。

  1. Video
  2. ID                                       : 1
  3. Format                                   : HEVC
  4. Format/Info                              : High Efficiency Video Coding
  5. Format profile                           : Main 10@L5.1@High
  6. HDR format                               : SMPTE ST 2086, HDR10 compatible
  7. Codec ID                                 : V_MPEGH/ISO/HEVC
  8. Duration                                 : 2 h 4 min
  9. Bit rate                                 : 10.1 Mb/s
  10. Width                                    : 3 840 pixels
  11. Height                                   : 1 604 pixels
  12. Display aspect ratio                     : 2.40:1
  13. Frame rate mode                          : Constant
  14. Frame rate                               : 23.976 (24000/1001/45165) FPS
  15. Color space                              : YUV
  16. Chroma subsampling                       : 4:2:0 (Type 2)
  17. Bit depth                                : 10 bits
  18. Bits/(Pixel*Frame)                       : 0.068
  19. Stream size                              : 8.76 GiB (73%)
  20. Writing library                          : x265 3.3+21-6bb2d88029c2:[Windows][GCC 10.0.1][64 bit] 10bit
  21. Encoding settings                        : cpuid=1111039 / frame-threads=5 / numa-pools=36 / wpp / no-pmode / no-pme / no-psnr / no-ssim / log-level=2 / input-csp=1 / input-res=3840x1604 / interlace=0 / total-frames=178934 / level-idc=51 / high-tier=1 / uhd-bd=0 / ref=4 / no-allow-non-conformance / repeat-headers / annexb / aud / hrd / info / hash=0 / no-temporal-layers / no-open-gop / min-keyint=23 / keyint=250 / gop-lookahead=0 / bframes=4 / b-adapt=2 / b-pyramid / bframe-bias=0 / rc-lookahead=25 / lookahead-slices=4 / scenecut=40 / hist-scenecut=0 / radl=0 / no-splice / no-intra-refresh / ctu=64 / min-cu-size=8 / rect / no-amp / max-tu-size=32 / tu-inter-depth=1 / tu-intra-depth=1 / limit-tu=0 / rdoq-level=2 / dynamic-rd=0.00 / no-ssim-rd / signhide / no-tskip / nr-intra=0 / nr-inter=0 / no-constrained-intra / strong-intra-smoothing / max-merge=3 / limit-refs=3 / limit-modes / me=3 / subme=3 / merange=57 / temporal-mvp / no-frame-dup / no-hme / weightp / no-weightb / no-analyze-src-pics / deblock=-3:-3 / no-sao / no-sao-non-deblock / rd=4 / selective-sao=0 / no-early-skip / rskip / no-fast-intra / no-tskip-fast / no-cu-lossless / no-b-intra / no-splitrd-skip / rdpenalty=0 / psy-rd=2.00 / psy-rdoq=1.00 / no-rd-refine / no-lossless / cbqpoffs=0 / crqpoffs=0 / rc=crf / crf=14.0 / qcomp=0.60 / qpstep=4 / stats-write=0 / stats-read=0 / vbv-maxrate=160000 / vbv-bufsize=160000 / vbv-init=0.9 / crf-max=0.0 / crf-min=0.0 / ipratio=1.40 / pbratio=1.30 / aq-mode=2 / aq-strength=1.00 / cutree / zone-count=0 / no-strict-cbr / qg-size=32 / no-rc-grain / qpmax=69 / qpmin=0 / no-const-vbv / sar=1 / overscan=0 / videoformat=5 / range=0 / colorprim=9 / transfer=16 / colormatrix=9 / chromaloc=1 / chromaloc-top=2 / chromaloc-bottom=2 / display-window=0 / master-display=G(13250,34500)B(7500,3000)R(34000,16000)WP(15635,16450)L(10000000,1) / cll=249,37 / min-luma=0 / max-luma=1023 / log2-max-poc-lsb=8 / vui-timing-info / vui-hrd-info / slices=1 / no-opt-qp-pps / no-opt-ref-list-length-pps / no-multi-pass-opt-rps / scenecut-bias=0.05 / hist-threshold=0.01 / no-opt-cu-delta-qp / no-aq-motion / hdr10 / hdr10-opt / no-dhdr10-opt / no-idr-recovery-sei / analysis-reuse-level=0 / analysis-save-reuse-level=0 / analysis-load-reuse-level=0 / scale-factor=0 / refine-intra=0 / refine-inter=0 / refine-mv=1 / refine-ctu-distortion=0 / no-limit-sao / ctu-info=0 / no-lowpass-dct / refine-analysis-type=0 / copy-pic=1 / max-ausize-factor=1.0 / no-dynamic-refine / no-single-sei / no-hevc-aq / no-svt / no-field / qp-adaptation-range=1.00 / no-scenecut-aware-qpconformance-window-offsets / right=0 / bottom=0 / decoder-max-rate=0
  22. Default                                  : Yes
  23. Forced                                   : No
  24. Color range                              : Limited
  25. Color primaries                          : BT.2020
  26. Transfer characteristics                 : PQ
  27. Matrix coefficients                      : BT.2020 non-constant
  28. Mastering display color primaries        : Display P3
  29. Mastering display luminance              : min: 0.0001 cd/m2, max: 1000 cd/m2
  30. Maximum Content Light Level              : 249 cd/m2
  31. Maximum Frame-Average Light Level        : 37 cd/m2
  32. Audio #1
  33. ID                                       : 2
  34. Format                                   : MLP FBA 16-ch
  35. Format/Info                              : Meridian Lossless Packing FBA with 16-channel presentation
  36. Commercial name                          : Dolby TrueHD with Dolby Atmos
  37. Codec ID                                 : A_TRUEHD
  38. Duration                                 : 2 h 4 min
  39. Bit rate mode                            : Variable
  40. Bit rate                                 : 3 050 kb/s
  41. Maximum bit rate                         : 5 652 kb/s
  42. Channel(s)                               : 8 channels
  43. Channel layout                           : L R C LFE Ls Rs Lb Rb
  44. Sampling rate                            : 48.0 kHz
  45. Frame rate                               : 1 200.000 FPS (40 SPF)
  46. Compression mode                         : Lossless
  47. Stream size                              : 2.65 GiB (22%)
  48. Language                                 : English
  49. Default                                  : Yes
  50. Forced                                   : No
  51. Number of dynamic objects                : 11
  52. Bed channel count                        : 1 channel
  53. Bed channel configuration                : LFE
  54. Audio #2
  55. ID                                       : 3
  56. Format                                   : AC-3
  57. Format/Info                              : Audio Coding 3
  58. Commercial name                          : Dolby Digital
  59. Codec ID                                 : A_AC3
  60. Duration                                 : 2 h 4 min
  61. Bit rate mode                            : Constant
  62. Bit rate                                 : 448 kb/s
  63. Channel(s)                               : 6 channels
  64. Channel layout                           : L R C LFE Ls Rs
  65. Sampling rate                            : 48.0 kHz
  66. Frame rate                               : 31.250 FPS (1536 SPF)
  67. Compression mode                         : Lossy
  68. Stream size                              : 399 MiB (3%)
  69. Language                                 : English
  70. Service kind                             : Complete Main
  71. Default                                  : No
  72. Forced                                   : No
  73. Audio #3
  74. ID                                       : 4
  75. Format                                   : AAC LC
  76. Format/Info                              : Advanced Audio Codec Low Complexity
  77. Codec ID                                 : A_AAC-2
  78. Duration                                 : 2 h 4 min
  79. Bit rate                                 : 96.0 kb/s
  80. Channel(s)                               : 2 channels
  81. Channel layout                           : L R
  82. Sampling rate                            : 48.0 kHz
  83. Frame rate                               : 46.875 FPS (1024 SPF)
  84. Compression mode                         : Lossy
  85. Delay relative to video                  : 9 ms
  86. Stream size                              : 86.7 MiB (1%)
  87. Title                                    : Commentary with Leigh Whannell
  88. Language                                 : English
  89. Default                                  : No
  90. Forced                                   : No
  91. Text #1
  92. ID                                       : 5
  93. Format                                   : PGS
  94. Muxing mode                              : zlib
  95. Codec ID                                 : S_HDMV/PGS
  96. Codec ID/Info                            : Picture based subtitle format used on BDs/HD-DVDs
  97. Duration                                 : 1 h 50 min
  98. Bit rate                                 : 24.4 kb/s
  99. Count of elements                        : 2096
  100. Stream size                              : 19.2 MiB (0%)
  101. Title                                    : SDH
  102. Language                                 : English
  103. Default                                  : No
  104. Forced                                   : No
  105. Text #2
  106. ID                                       : 6
  107. Format                                   : PGS
  108. Muxing mode                              : zlib
  109. Codec ID                                 : S_HDMV/PGS
  110. Codec ID/Info                            : Picture based subtitle format used on BDs/HD-DVDs
  111. Duration                                 : 2 h 3 min
  112. Bit rate                                 : 17.0 kb/s
  113. Count of elements                        : 1792
  114. Stream size                              : 15.0 MiB (0%)
  115. Language                                 : Spanish
  116. Default                                  : No
  117. Forced                                   : No
  118. Text #3
  119. ID                                       : 7
  120. Format                                   : PGS
  121. Muxing mode                              : zlib
  122. Codec ID                                 : S_HDMV/PGS
  123. Codec ID/Info                            : Picture based subtitle format used on BDs/HD-DVDs
  124. Duration                                 : 2 h 1 min
  125. Bit rate                                 : 18.9 kb/s
  126. Count of elements                        : 1752
  127. Stream size                              : 16.4 MiB (0%)
  128. Language                                 : French
  129. Default                                  : No
  130. Forced                                   : No
  131. Menu #1
  132. 00:00:00.000                             : en:Chapter 01
  133. 00:11:05.748                             : en:Chapter 02
  134. 00:16:09.135                             : en:Chapter 03
  135. 00:19:16.322                             : en:Chapter 04
  136. 00:25:27.651                             : en:Chapter 05
  137. 00:35:52.233                             : en:Chapter 06
  138. 00:39:50.179                             : en:Chapter 07
  139. 00:46:35.459                             : en:Chapter 08
  140. 00:52:41.867                             : en:Chapter 09
  141. 01:01:22.012                             : en:Chapter 10
  142. 01:08:59.802                             : en:Chapter 11
  143. 01:14:49.735                             : en:Chapter 12
  144. 01:19:23.926                             : en:Chapter 13
  145. 01:24:46.540                             : en:Chapter 14
  146. 01:30:25.337                             : en:Chapter 15
  147. 01:35:24.928                             : en:Chapter 16
  148. 01:39:33.342                             : en:Chapter 17
  149. 01:43:04.220                             : en:Chapter 18
  150. 01:48:54.695                             : en:Chapter 19
  151. 01:53:38.812                             : en:Chapter 20
  152. Menu #2
  153. 00:00:00.054                             : en:Chapter 01
复制代码
235405xwx4zrbrjr1bfrqc.png 235405cleq3fx133q73q6q.png 235406ep1s5tlotmoppszi.png




本帖隐藏的下载地址需要VIP会员才可阅读,您需要升级才可阅读,点击这里升级VIP

回复

使用道具 举报

级别:初级观众 Lv.1

注册时间
2020-5-24
最后登录
2020-5-27
听众
1
收听
0
主题
0
蓝光币
1 枚
贡献
0 点
发表于 4 天前 | 显示全部楼层
以为是科幻片,原来是恐怖片
回复

使用道具 举报

级别:荣升主角 Lv.5

注册时间
2020-2-23
最后登录
2020-5-28
听众
1
收听
0
主题
0
蓝光币
289 枚
贡献
0 点
发表于 4 天前 | 显示全部楼层
楼主发贴辛苦了,谢谢楼主分享!我觉得中国高清电影网是注册对了!
回复

使用道具 举报

级别:初级观众 Lv.1

注册时间
2019-12-8
最后登录
2020-5-24
听众
1
收听
0
主题
0
蓝光币
5 枚
贡献
0 点
发表于 4 天前 | 显示全部楼层

楼主发贴辛苦了,谢谢楼主分享!我觉得中国高清电影网是注册对了!
回复

使用道具 举报

级别:初级观众 Lv.1

注册时间
2020-3-8
最后登录
2020-5-24
听众
2
收听
0
主题
0
蓝光币
67 枚
贡献
0 点
发表于 4 天前 | 显示全部楼层
谢谢楼主分享高清大片
回复

使用道具 举报

懒得打字嘛,点击右侧快捷回复 【右侧内容,后台自定义】
您需要登录后才可以回帖 登录 | 立即注册

本版积分规则

Archiver|手机版|小黑屋| 中国高清网 ( ICP备17007870号-2 ) |网站地图 

GMT+8, 2020-5-28 14:55 , Processed in 0.185116 second(s), 39 queries .

Powered by HDchina X3.4

Copyright 2017-2019©HDchina.All right reserved

返回顶部 联系我们