查看: 125|回复: 0

[10bit.SDR] 黑暗正义联盟:天启星战争 Justice.League.Dark.Apokolips.War.2020.2160p.BluRay.x265.10bit.SDR.DTS-HD.MA.5.1-SWTYBLZ 14.34GB

[复制链接]

 成长值: 5460

级别:资源管理组

注册时间
2017-10-20
最后登录
2020-5-28
听众
1
收听
0
主题
96229
蓝光币
152004 枚
贡献
20607 点
发表于 5 天前 | 显示全部楼层 |阅读模式
黑暗正义同盟:天启星战争 Justice.League.Dark.Apokolips.War.2020.2160p.BluRay.x265.10bit.SDR.DTS-HD.MA.5.1-SWTYBLZ 14.34GB-1.png

译  名 黑暗正义同盟:天启星战争
片  名 Justice League Dark: Apokolips War
年  代 2020
产  地 美国
类  别 动画
语  言 英语
上映日期 2020-05-05(美国)
IMDb评分  7.9/10 from 6668 users
IMDb链接  https://www.imdb.com/title/tt11079148
豆瓣评分 7.3/10 from 6032 users
豆瓣链接 https://movie.douban.com/subject/34777818/
片  长 90分钟
导  演 马特·皮特斯 Matt Peters / 克里斯蒂娜·索塔 Christina Sotta
编  剧 厄尼·阿特巴克 Ernie Altbacker / 麦格里德·斯科特 Mairghread Scott
主  演 托尼·托德 Tony Todd
       丽贝卡·罗梅恩 Rebecca Romijn
       罗莎里奥·道森 Rosario Dawson
       雷恩·威尔森 Rainn Wilson
       卡米拉·卢丁顿 Camilla Luddington
       泰莎·法米加 Taissa Farmiga
       杰瑞·奥康奈尔 Jerry O'Connell
       谢默·摩尔 Shemar Moore
       克里斯托弗·戈勒姆 Christopher Gorham
       马特·瑞安 Matt Ryan
       杰森·奥玛拉 Jason O'Mara
       连姆·麦肯泰尔 Liam McIntyre
       约翰·迪·马吉欧 John Di Maggio
       海登·瓦尔希 Hynden Walch
       罗杰·R.克劳斯 Roger R. Cross
       雷·蔡斯 Ray Chase
       斯图尔特·艾伦 Stuart Allan
       萨奇·阿莱西奥 Sachie Alessio


标  签 DC | 动画 | 正义同盟 | 超级豪杰 | 美国 | DC动漫 | 漫画改编 | 科幻

简  介  

  正义同盟集结地球上一切超级豪杰一路匹敌强大的反派达克赛德。
  1. Video
  2. ID                                       : 1
  3. Format                                   : HEVC
  4. Format/Info                              : High Efficiency Video Coding
  5. Format profile                           : Main High@L4@High
  6. Codec ID                                 : V_MPEGH/ISO/HEVC
  7. Duration                                 : 1 h 30 min
  8. Bit rate                                 : 19.7 Mb/s
  9. Width                                    : 3 840 pixels
  10. Height                                   : 2 160 pixels
  11. Display aspect ratio                     : 16:9
  12. Frame rate mode                          : Constant
  13. Frame rate                               : 23.976 (24000/1001/189150) FPS
  14. Color space                              : YUV
  15. Chroma subsampling                       : 4:2:0
  16. Bit depth                                : 10 bits
  17. Bits/(Pixel*Frame)                       : 0.099
  18. Stream size                              : 12.4 GiB (87%)
  19. Title                                    : Justice.League.Dark.Apokolips.War.2020.2160p.BluRay.x265.10bit.SDR.DTS-HD.MA.5.1-SWTYBLZ
  20. Writing library                          : x265 3.0ed72af837053:[Windows][GCC 8.2.0][64 bit] 10bit
  21. Encoding settings                        : cpuid=1111039 / frame-threads=6 / numa-pools=40 / wpp / no-pmode / no-pme / no-psnr / no-ssim / log-level=2 / input-csp=1 / input-res=3840x2160 / interlace=0 / total-frames=129726 / level-idc=51 / high-tier=1 / uhd-bd=0 / ref=3 / no-allow-non-conformance / repeat-headers / annexb / aud / hrd / info / hash=0 / no-temporal-layers / no-open-gop / min-keyint=1 / keyint=24 / gop-lookahead=0 / bframes=6 / b-adapt=2 / b-pyramid / bframe-bias=0 / rc-lookahead=25 / lookahead-slices=4 / scenecut=40 / radl=0 / no-splice / no-intra-refresh / ctu=64 / min-cu-size=8 / no-rect / no-amp / max-tu-size=32 / tu-inter-depth=1 / tu-intra-depth=1 / limit-tu=0 / rdoq-level=0 / dynamic-rd=0.00 / no-ssim-rd / signhide / no-tskip / nr-intra=0 / nr-inter=0 / no-constrained-intra / strong-intra-smoothing / max-merge=2 / limit-refs=3 / no-limit-modes / me=1 / subme=2 / merange=57 / temporal-mvp / weightp / no-weightb / no-analyze-src-pics / deblock=1:1 / no-sao / no-sao-non-deblock / rd=3 / no-early-skip / rskip / no-fast-intra / no-tskip-fast / no-cu-lossless / no-b-intra / no-splitrd-skip / rdpenalty=0 / psy-rd=0.40 / psy-rdoq=0.00 / no-rd-refine / no-lossless / cbqpoffs=0 / crqpoffs=0 / rc=crf / crf=12.0 / qcomp=0.60 / qpstep=4 / stats-write=0 / stats-read=0 / vbv-maxrate=160000 / vbv-bufsize=160000 / vbv-init=0.9 / crf-max=0.0 / crf-min=0.0 / ipratio=1.40 / pbratio=1.30 / aq-mode=1 / aq-strength=0.40 / cutree / zone-count=0 / no-strict-cbr / qg-size=32 / no-rc-grain / qpmax=69 / qpmin=0 / no-const-vbv / sar=1 / overscan=0 / videoformat=5 / range=0 / colorprim=2 / transfer=2 / colormatrix=2 / chromaloc=0 / display-window=0 / max-cll=0,0 / min-luma=0 / max-luma=1023 / log2-max-poc-lsb=8 / vui-timing-info / vui-hrd-info / slices=1 / opt-qp-pps / opt-ref-list-length-pps / no-multi-pass-opt-rps / scenecut-bias=0.05 / no-opt-cu-delta-qp / no-aq-motion / no-hdr / no-hdr-opt / no-dhdr10-opt / no-idr-recovery-sei / analysis-reuse-level=5 / scale-factor=0 / refine-intra=0 / refine-inter=0 / refine-mv=0 / refine-ctu-distortion=0 / no-limit-sao / ctu-info=0 / no-lowpass-dct / refine-analysis-type=0 / copy-pic=1 / max-ausize-factor=1.0 / no-dynamic-refine / no-single-sei / no-hevc-aq / qp-adaptation-range=1.00
  22. Default                                  : Yes
  23. Forced                                   : No

  24. Audio #1
  25. ID                                       : 2
  26. ID in the original source medium         : 4352 (0x1100)
  27. Format                                   : DTS XLL
  28. Format/Info                              : Digital Theater Systems
  29. Commercial name                          : DTS-HD Master Audio
  30. Codec ID                                 : A_DTS
  31. Duration                                 : 1 h 30 min
  32. Bit rate mode                            : Variable
  33. Bit rate                                 : 2 320 kb/s
  34. Channel(s)                               : 6 channels
  35. Channel layout                           : C L R Ls Rs LFE
  36. Sampling rate                            : 48.0 kHz
  37. Frame rate                               : 93.750 FPS (512 SPF)
  38. Bit depth                                : 16 bits
  39. Compression mode                         : Lossless
  40. Stream size                              : 1.46 GiB (10%)
  41. Title                                    : Justice.League.Dark.Apokolips.War.2020.2160p.BluRay.x265.10bit.SDR.DTS-HD.MA.5.1-SWTYBLZ
  42. Language                                 : English
  43. Default                                  : Yes
  44. Forced                                   : No
  45. Original source medium                   : Blu-ray

  46. Audio #2
  47. ID                                       : 3
  48. Format                                   : AC-3
  49. Format/Info                              : Audio Coding 3
  50. Commercial name                          : Dolby Digital
  51. Codec ID                                 : A_AC3
  52. Duration                                 : 1 h 30 min
  53. Bit rate mode                            : Constant
  54. Bit rate                                 : 640 kb/s
  55. Channel(s)                               : 6 channels
  56. Channel layout                           : L R C LFE Ls Rs
  57. Sampling rate                            : 48.0 kHz
  58. Frame rate                               : 31.250 FPS (1536 SPF)
  59. Bit depth                                : 16 bits
  60. Compression mode                         : Lossy
  61. Stream size                              : 413 MiB (3%)
  62. Title                                    : Justice.League.Dark.Apokolips.War.2020.2160p.BluRay.x265.10bit.SDR.DTS-HD.MA.5.1-SWTYBLZ
  63. Language                                 : English
  64. Service kind                             : Complete Main
  65. Default                                  : No
  66. Forced                                   : No

  67. Text #1
  68. ID                                       : 4
  69. Format                                   : UTF-8
  70. Codec ID                                 : S_TEXT/UTF8
  71. Codec ID/Info                            : UTF-8 Plain Text
  72. Duration                                 : 1 h 24 min
  73. Bit rate                                 : 45 b/s
  74. Count of elements                        : 1004
  75. Stream size                              : 28.4 KiB (0%)
  76. Title                                    : English-SRT
  77. Language                                 : English
  78. Default                                  : Yes
  79. Forced                                   : No

  80. Text #2
  81. ID                                       : 5
  82. ID in the original source medium         : 4768 (0x12A0)
  83. Format                                   : PGS
  84. Muxing mode                              : zlib
  85. Codec ID                                 : S_HDMV/PGS
  86. Codec ID/Info                            : Picture based subtitle format used on BDs/HD-DVDs
  87. Duration                                 : 1 h 25 min
  88. Bit rate                                 : 32.6 kb/s
  89. Count of elements                        : 2490
  90. Stream size                              : 19.9 MiB (0%)
  91. Title                                    : English-PGS
  92. Language                                 : English
  93. Default                                  : No
  94. Forced                                   : No
  95. Original source medium                   : Blu-ray

  96. Text #3
  97. ID                                       : 6
  98. ID in the original source medium         : 4769 (0x12A1)
  99. Format                                   : PGS
  100. Muxing mode                              : zlib
  101. Codec ID                                 : S_HDMV/PGS
  102. Codec ID/Info                            : Picture based subtitle format used on BDs/HD-DVDs
  103. Duration                                 : 1 h 29 min
  104. Bit rate                                 : 27.9 kb/s
  105. Count of elements                        : 1974
  106. Stream size                              : 17.8 MiB (0%)
  107. Title                                    : French-PGS
  108. Language                                 : French
  109. Default                                  : No
  110. Forced                                   : No
  111. Original source medium                   : Blu-ray

  112. Text #4
  113. ID                                       : 7
  114. ID in the original source medium         : 4770 (0x12A2)
  115. Format                                   : PGS
  116. Muxing mode                              : zlib
  117. Codec ID                                 : S_HDMV/PGS
  118. Codec ID/Info                            : Picture based subtitle format used on BDs/HD-DVDs
  119. Duration                                 : 1 h 29 min
  120. Bit rate                                 : 27.9 kb/s
  121. Count of elements                        : 1978
  122. Stream size                              : 17.8 MiB (0%)
  123. Title                                    : Spanish-PGS
  124. Language                                 : Spanish
  125. Default                                  : No
  126. Forced                                   : No
  127. Original source medium                   : Blu-ray

  128. Menu
  129. 00:00:00.000                             : en:Chapter 01
  130. 00:08:30.593                             : en:Chapter 02
  131. 00:17:35.095                             : en:Chapter 03
  132. 00:27:06.625                             : en:Chapter 04
  133. 00:35:31.170                             : en:Chapter 05
  134. 00:44:35.673                             : en:Chapter 06
  135. 00:53:16.067                             : en:Chapter 07
  136. 01:01:53.543                             : en:Chapter 08
  137. 01:08:14.340                             : en:Chapter 09
  138. 01:17:38.195                             : en:Chapter 10
  139. 01:26:54.667                             : en:Chapter 11
复制代码

黑暗正义同盟:天启星战争 Justice.League.Dark.Apokolips.War.2020.2160p.BluRay.x265.10bit.SDR.DTS-HD.MA.5.1-SWTYBLZ 14.34GB-2.png 黑暗正义同盟:天启星战争 Justice.League.Dark.Apokolips.War.2020.2160p.BluRay.x265.10bit.SDR.DTS-HD.MA.5.1-SWTYBLZ 14.34GB-3.png 黑暗正义同盟:天启星战争 Justice.League.Dark.Apokolips.War.2020.2160p.BluRay.x265.10bit.SDR.DTS-HD.MA.5.1-SWTYBLZ 14.34GB-4.png 黑暗正义同盟:天启星战争 Justice.League.Dark.Apokolips.War.2020.2160p.BluRay.x265.10bit.SDR.DTS-HD.MA.5.1-SWTYBLZ 14.34GB-5.png 黑暗正义同盟:天启星战争 Justice.League.Dark.Apokolips.War.2020.2160p.BluRay.x265.10bit.SDR.DTS-HD.MA.5.1-SWTYBLZ 14.34GB-6.png 黑暗正义同盟:天启星战争 Justice.League.Dark.Apokolips.War.2020.2160p.BluRay.x265.10bit.SDR.DTS-HD.MA.5.1-SWTYBLZ 14.34GB-7.png 黑暗正义同盟:天启星战争 Justice.League.Dark.Apokolips.War.2020.2160p.BluRay.x265.10bit.SDR.DTS-HD.MA.5.1-SWTYBLZ 14.34GB-8.png






本帖隐藏的下载地址需要VIP会员才可阅读,您需要升级才可阅读,点击这里升级VIP
回复

使用道具 举报

懒得打字嘛,点击右侧快捷回复 【右侧内容,后台自定义】
您需要登录后才可以回帖 登录 | 立即注册

本版积分规则

Archiver|手机版|小黑屋| 中国高清网 ( ICP备17007870号-2 ) |网站地图 

GMT+8, 2020-5-28 14:41 , Processed in 0.166648 second(s), 39 queries .

Powered by HDchina X3.4

Copyright 2017-2019©HDchina.All right reserved

返回顶部 联系我们