查看: 131|回复: 2

[剧情片] 燈塔下的戀人 Guia.In.Love.2015.CHINESE.1080p.BluRay.x264.DTS-FGT 8.83GB

[复制链接]

 成长值: 5460

级别:资源管理组

注册时间
2017-10-20
最后登录
2020-5-28
听众
1
收听
0
主题
96229
蓝光币
152044 枚
贡献
20607 点
发表于 5 天前 | 显示全部楼层 |阅读模式
燈塔下的戀人 Guia.In.Love.2015.CHINESE.1080p.BluRay.x264.DTS-FGT 8.83GB-1.png

译  名 灯塔下的情人 / Guia in Love
片  名 燈塔下的戀人
年  代 2015
产  地 中国香港
类  别 剧情 / 恋爱
语  言 粤语 / 汉语普通话
上映日期 2015-09-17(中国香港) / 2016-03-11(中国大陆)
IMDb评分  6.1/10 from 32 users
IMDb链接  https://www.imdb.com/title/tt5221208
豆瓣评分 4.6/10 from 918 users
豆瓣链接 https://movie.douban.com/subject/26575857/
导  演 梁德森 Tak-Sam Leong
编  剧 梁德森 Tak-Sam Leong / 凌志民 Chi-man Ling / 余景莉 Celia Yu
主  演 邓丽欣 Stephy Tang
       黄又南 You-Nam Wong
       薛凯琪 Fiona Sit
       杨奇煜 Fabien Yang
       刘浩龙 Wilfred Lau
       刘心悠 Annie Liu
       蔡瀚亿 Babyjohn Choi
       陈慧敏 Vivian Chan
       小肥 Terence Siufay
       蔡洁 Jacky Cai
       郑欣宜 Joyce Cheng
       尹扬明 Yeung Ming Wan
       林俊贤 Wilson Lam


标  签 恋爱 | 香港 | 2015 | 香港电影 | 澳门 | 剧情 | 邓丽欣 | 刘心悠

简  介  

  陈门风(尹扬明 饰)和周启光(林俊贤 饰)是从小到大的好友玩伴,相互之间友谊非常果断,但是,两人却在鬼使神差当中同时爱上了名为李玉兰的美丽女孩,两人的友谊就此发生了裂缝。终极,李玉兰挑选了陈门风,失意的周启光背井离乡,阔别这片令他悲伤的地盘。
  一晃眼几十年曩昔,周启光从冷静无闻的鲁莽青年一跃成为了家财万贯的澳门富豪,而他的女儿黛比(邓丽欣 饰)则爱上了赌场游荡荷官子华(黄又南 饰)。何处厢,陈门风和李玉兰的女儿在车祸中不幸归天,留下半子杨振强(刘浩龙 饰)单独带着儿子滔滔相依为命。人小鬼大的滔滔不忍看见父亲形单影只,因而联手同学小欣,诡计将杨振强和小欣的阿姨梓芬(刘心悠 饰)撮合到一路。
  1. Video
  2. ID                                       : 1
  3. Format                                   : AVC
  4. Format/Info                              : Advanced Video Codec
  5. Format profile                           : High@L4
  6. Format settings                          : CABAC / 4 Ref Frames
  7. Format settings, CABAC                   : Yes
  8. Format settings, Reference frames        : 4 frames
  9. Codec ID                                 : V_MPEG4/ISO/AVC
  10. Duration                                 : 1 h 37 min
  11. Bit rate                                 : 11.5 Mb/s
  12. Width                                    : 1 920 pixels
  13. Height                                   : 804 pixels
  14. Display aspect ratio                     : 2.40:1
  15. Frame rate mode                          : Constant
  16. Frame rate                               : 24.000 FPS
  17. Color space                              : YUV
  18. Chroma subsampling                       : 4:2:0
  19. Bit depth                                : 8 bits
  20. Scan type                                : Progressive
  21. Bits/(Pixel*Frame)                       : 0.310
  22. Stream size                              : 7.80 GiB (88%)
  23. Title                                    : Guia.In.Love.2015.CHINESE.1080p.BluRay.x264.DTS-FGT
  24. Writing library                          : x264 core 148 r2748 97eaef2
  25. Encoding settings                        : cabac=1 / ref=4 / deblock=1:-2:-2 / analyse=0x3:0x113 / me=umh / subme=9 / psy=1 / psy_rd=1.00:0.15 / mixed_ref=1 / me_range=16 / chroma_me=1 / trellis=2 / 8x8dct=1 / cqm=0 / deadzone=21,11 / fast_pskip=1 / chroma_qp_offset=-3 / threads=24 / lookahead_threads=3 / sliced_threads=0 / nr=0 / decimate=1 / interlaced=0 / bluray_compat=0 / constrained_intra=0 / bframes=3 / b_pyramid=2 / b_adapt=1 / b_bias=0 / direct=3 / weightb=1 / open_gop=0 / weightp=2 / keyint=250 / keyint_min=25 / scenecut=40 / intra_refresh=0 / rc_lookahead=50 / rc=2pass / mbtree=1 / bitrate=11500 / ratetol=1.0 / qcomp=0.60 / qpmin=0 / qpmax=69 / qpstep=4 / cplxblur=20.0 / qblur=0.5 / vbv_maxrate=31250 / vbv_bufsize=31250 / nal_hrd=none / filler=0 / ip_ratio=1.40 / aq=1:1.00
  26. Language                                 : Chinese
  27. Default                                  : Yes
  28. Forced                                   : No

  29. Audio
  30. ID                                       : 2
  31. Format                                   : DTS
  32. Format/Info                              : Digital Theater Systems
  33. Codec ID                                 : A_DTS
  34. Duration                                 : 1 h 37 min
  35. Bit rate mode                            : Constant
  36. Bit rate                                 : 1 509 kb/s
  37. Channel(s)                               : 6 channels
  38. Channel layout                           : C L R Ls Rs LFE
  39. Sampling rate                            : 48.0 kHz
  40. Frame rate                               : 93.750 FPS (512 SPF)
  41. Bit depth                                : 16 bits
  42. Compression mode                         : Lossy
  43. Stream size                              : 1.03 GiB (12%)
  44. Title                                    : Guia.In.Love.2015.CHINESE.1080p.BluRay.x264.DTS-FGT
  45. Language                                 : Chinese
  46. Default                                  : Yes
  47. Forced                                   : No

  48. Text
  49. ID                                       : 3
  50. Format                                   : UTF-8
  51. Codec ID                                 : S_TEXT/UTF8
  52. Codec ID/Info                            : UTF-8 Plain Text
  53. Duration                                 : 1 h 31 min
  54. Bit rate                                 : 34 b/s
  55. Count of elements                        : 861
  56. Stream size                              : 23.4 KiB (0%)
  57. Language                                 : English
  58. Default                                  : Yes
  59. Forced                                   : No

  60. Menu
  61. 00:00:00.000                             : en:Chapter 01
  62. 00:08:05.416                             : en:Chapter 02
  63. 00:17:30.541                             : en:Chapter 03
  64. 00:24:47.958                             : en:Chapter 04
  65. 00:32:35.333                             : en:Chapter 05
  66. 00:40:31.083                             : en:Chapter 06
  67. 00:47:31.791                             : en:Chapter 07
  68. 00:56:59.916                             : en:Chapter 08
  69. 01:03:10.458                             : en:Chapter 09
  70. 01:15:09.666                             : en:Chapter 10
  71. 01:23:16.083                             : en:Chapter 11
  72. 01:29:49.750                             : en:Chapter 12
复制代码

燈塔下的戀人 Guia.In.Love.2015.CHINESE.1080p.BluRay.x264.DTS-FGT 8.83GB-2.png 燈塔下的戀人 Guia.In.Love.2015.CHINESE.1080p.BluRay.x264.DTS-FGT 8.83GB-3.png 燈塔下的戀人 Guia.In.Love.2015.CHINESE.1080p.BluRay.x264.DTS-FGT 8.83GB-4.png






回复

使用道具 举报

 成长值: 1290

级别:尊贵的会员

注册时间
2020-3-1
最后登录
2020-5-28
听众
2
收听
0
主题
0
蓝光币
331 枚
贡献
0 点
发表于 5 天前 | 显示全部楼层
楼主发贴辛苦了,谢谢楼主分享!我觉得中国高清电影网是注册对了!
回复

使用道具 举报

懒得打字嘛,点击右侧快捷回复 【右侧内容,后台自定义】
您需要登录后才可以回帖 登录 | 立即注册

本版积分规则

Archiver|手机版|小黑屋| 中国高清网 ( ICP备17007870号-2 ) |网站地图 

GMT+8, 2020-5-28 16:20 , Processed in 0.162024 second(s), 39 queries .

Powered by HDchina X3.4

Copyright 2017-2019©HDchina.All right reserved

返回顶部 联系我们