查看: 86|回复: 2

[剧情片] 在我父亲的洞穴里 In.My.Fathers.Den.2004.1080p.BluRay.x264.DTS-FGT 10.90GB

[复制链接]

 成长值: 5460

级别:资源管理组

注册时间
2017-10-20
最后登录
2020-5-28
听众
1
收听
0
主题
96229
蓝光币
152002 枚
贡献
20607 点
发表于 5 天前 | 显示全部楼层 |阅读模式
在我父亲的洞窟里 In.My.Fathers.Den.2004.1080p.BluRay.x264.DTS-FGT 10.90GB-1.png

译  名 在我父亲的洞窟里 / Um Refúgio no Passado
片  名 In My Father's Den
年  代 2004
产  地 新西兰 / 英国
类  别 剧情 / 悬疑 / 惊悚
语  言 英语
上映日期 2004-10-07(新西兰)
IMDb评分  7.5/10 from 7189 users
IMDb链接  https://www.imdb.com/title/tt0385017
豆瓣评分 7.7/10 from 1787 users
豆瓣链接 https://movie.douban.com/subject/1309127/
片  长 127分钟
导  演 布拉德·迈克吉恩 Brad McGann
编  剧 布拉德·迈克吉恩 Brad McGann / Maurice Gee
主  演 马修·麦克费登 Matthew Macfadyen
       艾米丽·巴克雷 Emily Barclay
       米兰达·奥图 Miranda Otto
       Colin Moy
       Jimmy Keen
       Jodie Rimmer


标  签 新西兰 | 悬疑 | 剧情 | MatthewMacFadyen | 英国 | 家庭 | 新西兰电影 | 长大

简  介  

  这是鲍尔(马修·麦克费登 Matthew Macfadyen 饰)这十几年来第一次踏上故乡的地盘,他来这里不为了此外,只为了加入父亲的葬礼。作为鲍尔的兄长,安德鲁(科林·莫伊 Colin Moy 饰)对于兄弟的来访却并不兴奋,时候使人们变得陌生,悬殊的本性又为他们制造了冲突。在安德鲁的激烈要求下,鲍尔来到了父亲已经呆过的小屋,清算父亲留下的遗产,没想到,在小屋里,鲍尔碰见了一位名叫西莉亚(艾米丽·巴克雷 Emily Barclay 饰)的少女。
  受朋友所托,鲍尔担任了写作课的代课教员,在班上,他再一次的看到了西莉亚的身影。令鲍尔受惊的是,西莉亚居然是他和前女友的恋爱结晶而他对此一无所知。在血缘的影响下,鲍尔对西莉亚分外的照顾和关心,竭尽尽力的支持着她追求自己的胡想,这样的状态一向延续到了西莉亚忽然失落的那一天,同时,一个不为人知的奥秘就此揭开。

获奖情况  

  第8届上海国际电影节(2005)
  金爵奖 最好影片(提名) 布拉德·迈克吉恩
  金爵奖 最好摄影 斯图尔特·瑞伯
  1. Video
  2. ID                                       : 1
  3. Format                                   : AVC
  4. Format/Info                              : Advanced Video Codec
  5. Format profile                           : High@L4
  6. Format settings                          : CABAC / 4 Ref Frames
  7. Format settings, CABAC                   : Yes
  8. Format settings, Reference frames        : 4 frames
  9. Codec ID                                 : V_MPEG4/ISO/AVC
  10. Duration                                 : 2 h 7 min
  11. Bit rate                                 : 11.5 Mb/s
  12. Width                                    : 1 916 pixels
  13. Height                                   : 816 pixels
  14. Display aspect ratio                     : 2.35:1
  15. Frame rate mode                          : Constant
  16. Frame rate                               : 24.000 FPS
  17. Color space                              : YUV
  18. Chroma subsampling                       : 4:2:0
  19. Bit depth                                : 8 bits
  20. Scan type                                : Progressive
  21. Bits/(Pixel*Frame)                       : 0.306
  22. Stream size                              : 10.2 GiB (94%)
  23. Title                                    : In.My.Fathers.Den.2004.1080p.BluRay.x264.DTS-FGT
  24. Writing library                          : x264 core 148 r2795M aaa9aa8
  25. Encoding settings                        : cabac=1 / ref=4 / deblock=1:-2:-2 / analyse=0x3:0x113 / me=umh / subme=9 / psy=1 / psy_rd=1.00:0.15 / mixed_ref=1 / me_range=16 / chroma_me=1 / trellis=2 / 8x8dct=1 / cqm=0 / deadzone=21,11 / fast_pskip=1 / chroma_qp_offset=-3 / threads=24 / lookahead_threads=3 / sliced_threads=0 / nr=0 / decimate=1 / interlaced=0 / bluray_compat=0 / constrained_intra=0 / bframes=3 / b_pyramid=2 / b_adapt=1 / b_bias=0 / direct=3 / weightb=1 / open_gop=0 / weightp=2 / keyint=250 / keyint_min=25 / scenecut=40 / intra_refresh=0 / rc_lookahead=50 / rc=2pass / mbtree=1 / bitrate=11500 / ratetol=1.0 / qcomp=0.60 / qpmin=0 / qpmax=69 / qpstep=4 / cplxblur=20.0 / qblur=0.5 / vbv_maxrate=31250 / vbv_bufsize=31250 / nal_hrd=none / filler=0 / ip_ratio=1.40 / aq=1:1.00
  26. Language                                 : English
  27. Default                                  : Yes
  28. Forced                                   : No

  29. Audio
  30. ID                                       : 2
  31. Format                                   : DTS
  32. Format/Info                              : Digital Theater Systems
  33. Codec ID                                 : A_DTS
  34. Duration                                 : 2 h 7 min
  35. Bit rate mode                            : Constant
  36. Bit rate                                 : 768 kb/s
  37. Channel(s)                               : 6 channels
  38. Channel layout                           : C L R Ls Rs LFE
  39. Sampling rate                            : 48.0 kHz
  40. Frame rate                               : 93.750 FPS (512 SPF)
  41. Bit depth                                : 16 bits
  42. Compression mode                         : Lossy
  43. Stream size                              : 699 MiB (6%)
  44. Title                                    : In.My.Fathers.Den.2004.1080p.BluRay.x264.DTS-FGT
  45. Language                                 : English
  46. Default                                  : Yes
  47. Forced                                   : No

  48. Text
  49. ID                                       : 3
  50. Format                                   : UTF-8
  51. Codec ID                                 : S_TEXT/UTF8
  52. Codec ID/Info                            : UTF-8 Plain Text
  53. Duration                                 : 2 h 1 min
  54. Bit rate                                 : 38 b/s
  55. Count of elements                        : 1123
  56. Stream size                              : 34.5 KiB (0%)
  57. Language                                 : English
  58. Default                                  : Yes
  59. Forced                                   : No

  60. Menu
  61. 00:00:00.000                             : en:Chapter 00
  62. 00:00:00.500                             : en:Chapter 01
  63. 00:02:47.916                             : en:Chapter 02
  64. 00:09:32.541                             : en:Chapter 03
  65. 00:17:59.541                             : en:Chapter 04
  66. 00:26:45.291                             : en:Chapter 05
  67. 00:34:44.041                             : en:Chapter 06
  68. 00:43:11.916                             : en:Chapter 07
  69. 00:51:19.250                             : en:Chapter 08
  70. 00:58:28.666                             : en:Chapter 09
  71. 01:03:29.875                             : en:Chapter 10
  72. 01:13:17.750                             : en:Chapter 11
  73. 01:20:46.500                             : en:Chapter 12
  74. 01:30:46.750                             : en:Chapter 13
  75. 01:39:56.125                             : en:Chapter 14
  76. 01:54:07.166                             : en:Chapter 15
  77. 02:02:55.208                             : en:Chapter 16
  78. 02:07:13.208                             : en:Chapter 17
复制代码

在我父亲的洞窟里 In.My.Fathers.Den.2004.1080p.BluRay.x264.DTS-FGT 10.90GB-2.png 在我父亲的洞窟里 In.My.Fathers.Den.2004.1080p.BluRay.x264.DTS-FGT 10.90GB-3.png 在我父亲的洞窟里 In.My.Fathers.Den.2004.1080p.BluRay.x264.DTS-FGT 10.90GB-4.png






回复

使用道具 举报

 成长值: 1290

级别:尊贵的会员

注册时间
2020-3-1
最后登录
2020-5-28
听众
2
收听
0
主题
0
蓝光币
331 枚
贡献
0 点
发表于 5 天前 | 显示全部楼层
楼主发贴辛苦了,谢谢楼主分享!我觉得中国高清电影网是注册对了!
回复

使用道具 举报

懒得打字嘛,点击右侧快捷回复 【右侧内容,后台自定义】
您需要登录后才可以回帖 登录 | 立即注册

本版积分规则

Archiver|手机版|小黑屋| 中国高清网 ( ICP备17007870号-2 ) |网站地图 

GMT+8, 2020-5-28 14:33 , Processed in 0.161063 second(s), 39 queries .

Powered by HDchina X3.4

Copyright 2017-2019©HDchina.All right reserved

返回顶部 联系我们