查看: 212|回复: 1

[REMUX.HEVC] 黑暗正义联盟:天启星战争 Justice.League.Dark.Apokolips.War.2020.2160p.BluRay.REMUX.HEVC.DTS-HD.MA.5.1-FGT 33.24GB

[复制链接]

 成长值: 5460

级别:资源管理组

注册时间
2017-10-20
最后登录
2020-5-28
听众
1
收听
0
主题
96229
蓝光币
152018 枚
贡献
20607 点
发表于 6 天前 | 显示全部楼层 |阅读模式
黑暗正义同盟:天启星战争 Justice.League.Dark.Apokolips.War.2020.2160p.BluRay.REMUX.HEVC.DTS-HD.MA.5.1-FGT 33.24GB-1.png

译  名 黑暗正义同盟:天启星战争
片  名 Justice League Dark: Apokolips War
年  代 2020
产  地 美国
类  别 动画
语  言 英语
上映日期 2020-05-05(美国)
IMDb评分  7.9/10 from 6668 users
IMDb链接  https://www.imdb.com/title/tt11079148
豆瓣评分 7.3/10 from 6032 users
豆瓣链接 https://movie.douban.com/subject/34777818/
片  长 90分钟
导  演 马特·皮特斯 Matt Peters / 克里斯蒂娜·索塔 Christina Sotta
编  剧 厄尼·阿特巴克 Ernie Altbacker / 麦格里德·斯科特 Mairghread Scott
主  演 托尼·托德 Tony Todd
       丽贝卡·罗梅恩 Rebecca Romijn
       罗莎里奥·道森 Rosario Dawson
       雷恩·威尔森 Rainn Wilson
       卡米拉·卢丁顿 Camilla Luddington
       泰莎·法米加 Taissa Farmiga
       杰瑞·奥康奈尔 Jerry O'Connell
       谢默·摩尔 Shemar Moore
       克里斯托弗·戈勒姆 Christopher Gorham
       马特·瑞安 Matt Ryan
       杰森·奥玛拉 Jason O'Mara
       连姆·麦肯泰尔 Liam McIntyre
       约翰·迪·马吉欧 John Di Maggio
       海登·瓦尔希 Hynden Walch
       罗杰·R.克劳斯 Roger R. Cross
       雷·蔡斯 Ray Chase
       斯图尔特·艾伦 Stuart Allan
       萨奇·阿莱西奥 Sachie Alessio


标  签 DC | 动画 | 正义同盟 | 超级豪杰 | 美国 | DC动漫 | 漫画改编 | 科幻

简  介  

  正义同盟集结地球上一切超级豪杰一路匹敌强大的反派达克赛德。
  1. Video
  2. ID                                       : 1
  3. ID in the original source medium         : 4113 (0x1011)
  4. Format                                   : HEVC
  5. Format/Info                              : High Efficiency Video Coding
  6. Format profile                           : Main High@L4@High
  7. HDR format                               : SMPTE ST 2086, HDR10 compatible
  8. Codec ID                                 : V_MPEGH/ISO/HEVC
  9. Duration                                 : 1 h 30 min
  10. Bit rate                                 : 49.8 Mb/s
  11. Width                                    : 3 840 pixels
  12. Height                                   : 2 160 pixels
  13. Display aspect ratio                     : 16:9
  14. Frame rate mode                          : Constant
  15. Frame rate                               : 23.976 (24000/1001/189150) FPS
  16. Color space                              : YUV
  17. Chroma subsampling                       : 4:2:0 (Type 2)
  18. Bit depth                                : 10 bits
  19. Bits/(Pixel*Frame)                       : 0.250
  20. Stream size                              : 31.4 GiB (94%)
  21. Title                                    : Justice.League.Dark.Apokolips.War.2020.2160p.BluRay.REMUX.HEVC.DTS-HD.MA.5.1-FGT
  22. Writing library                          : ATEME Titan File 3.9.0 (4.9.0.0)        
  23. Language                                 : English
  24. Default                                  : No
  25. Forced                                   : No
  26. Color range                              : Limited
  27. Color primaries                          : BT.2020
  28. Transfer characteristics                 : PQ
  29. Matrix coefficients                      : BT.2020 non-constant
  30. Mastering display color primaries        : Display P3
  31. Mastering display luminance              : min: 0.0050 cd/m2, max: 4000 cd/m2
  32. Maximum Content Light Level              : 343 cd/m2
  33. Maximum Frame-Average Light Level        : 106 cd/m2
  34. Original source medium                   : Blu-ray

  35. Audio #1
  36. ID                                       : 2
  37. ID in the original source medium         : 4352 (0x1100)
  38. Format                                   : DTS XLL
  39. Format/Info                              : Digital Theater Systems
  40. Commercial name                          : DTS-HD Master Audio
  41. Codec ID                                 : A_DTS
  42. Duration                                 : 1 h 30 min
  43. Bit rate mode                            : Variable
  44. Bit rate                                 : 2 320 kb/s
  45. Channel(s)                               : 6 channels
  46. Channel layout                           : C L R Ls Rs LFE
  47. Sampling rate                            : 48.0 kHz
  48. Frame rate                               : 93.750 FPS (512 SPF)
  49. Bit depth                                : 16 bits
  50. Compression mode                         : Lossless
  51. Stream size                              : 1.46 GiB (4%)
  52. Title                                    : Justice.League.Dark.Apokolips.War.2020.2160p.BluRay.REMUX.HEVC.DTS-HD.MA.5.1-FGT
  53. Language                                 : English
  54. Default                                  : Yes
  55. Forced                                   : No
  56. Original source medium                   : Blu-ray

  57. Audio #2
  58. ID                                       : 3
  59. ID in the original source medium         : 4353 (0x1101)
  60. Format                                   : AC-3
  61. Format/Info                              : Audio Coding 3
  62. Commercial name                          : Dolby Digital
  63. Codec ID                                 : A_AC3
  64. Duration                                 : 1 h 30 min
  65. Bit rate mode                            : Constant
  66. Bit rate                                 : 448 kb/s
  67. Channel(s)                               : 6 channels
  68. Channel layout                           : L R C LFE Ls Rs
  69. Sampling rate                            : 48.0 kHz
  70. Frame rate                               : 31.250 FPS (1536 SPF)
  71. Bit depth                                : 16 bits
  72. Compression mode                         : Lossy
  73. Stream size                              : 289 MiB (1%)
  74. Title                                    : Justice.League.Dark.Apokolips.War.2020.2160p.BluRay.REMUX.HEVC.DTS-HD.MA.5.1-FGT
  75. Language                                 : French
  76. Service kind                             : Complete Main
  77. Default                                  : No
  78. Forced                                   : No
  79. Original source medium                   : Blu-ray

  80. Audio #3
  81. ID                                       : 4
  82. ID in the original source medium         : 4354 (0x1102)
  83. Format                                   : AC-3
  84. Format/Info                              : Audio Coding 3
  85. Commercial name                          : Dolby Digital
  86. Codec ID                                 : A_AC3
  87. Duration                                 : 1 h 30 min
  88. Bit rate mode                            : Constant
  89. Bit rate                                 : 192 kb/s
  90. Channel(s)                               : 2 channels
  91. Channel layout                           : L R
  92. Sampling rate                            : 48.0 kHz
  93. Frame rate                               : 31.250 FPS (1536 SPF)
  94. Bit depth                                : 16 bits
  95. Compression mode                         : Lossy
  96. Stream size                              : 124 MiB (0%)
  97. Title                                    : Justice.League.Dark.Apokolips.War.2020.2160p.BluRay.REMUX.HEVC.DTS-HD.MA.5.1-FGT
  98. Language                                 : Spanish
  99. Service kind                             : Complete Main
  100. Default                                  : No
  101. Forced                                   : No
  102. Original source medium                   : Blu-ray

  103. Text #1
  104. ID                                       : 5
  105. Format                                   : UTF-8
  106. Codec ID                                 : S_TEXT/UTF8
  107. Codec ID/Info                            : UTF-8 Plain Text
  108. Duration                                 : 1 h 24 min
  109. Bit rate                                 : 45 b/s
  110. Count of elements                        : 1004
  111. Stream size                              : 28.4 KiB (0%)
  112. Title                                    : English-SRT
  113. Language                                 : English
  114. Default                                  : Yes
  115. Forced                                   : No

  116. Text #2
  117. ID                                       : 6
  118. ID in the original source medium         : 4768 (0x12A0)
  119. Format                                   : PGS
  120. Muxing mode                              : zlib
  121. Codec ID                                 : S_HDMV/PGS
  122. Codec ID/Info                            : Picture based subtitle format used on BDs/HD-DVDs
  123. Duration                                 : 1 h 25 min
  124. Bit rate                                 : 32.6 kb/s
  125. Count of elements                        : 2490
  126. Stream size                              : 19.9 MiB (0%)
  127. Title                                    : English-PGS
  128. Language                                 : English
  129. Default                                  : No
  130. Forced                                   : No
  131. Original source medium                   : Blu-ray

  132. Text #3
  133. ID                                       : 7
  134. ID in the original source medium         : 4769 (0x12A1)
  135. Format                                   : PGS
  136. Muxing mode                              : zlib
  137. Codec ID                                 : S_HDMV/PGS
  138. Codec ID/Info                            : Picture based subtitle format used on BDs/HD-DVDs
  139. Duration                                 : 1 h 29 min
  140. Bit rate                                 : 27.9 kb/s
  141. Count of elements                        : 1974
  142. Stream size                              : 17.8 MiB (0%)
  143. Title                                    : French-PGS
  144. Language                                 : French
  145. Default                                  : No
  146. Forced                                   : No
  147. Original source medium                   : Blu-ray

  148. Text #4
  149. ID                                       : 8
  150. ID in the original source medium         : 4770 (0x12A2)
  151. Format                                   : PGS
  152. Muxing mode                              : zlib
  153. Codec ID                                 : S_HDMV/PGS
  154. Codec ID/Info                            : Picture based subtitle format used on BDs/HD-DVDs
  155. Duration                                 : 1 h 29 min
  156. Bit rate                                 : 27.9 kb/s
  157. Count of elements                        : 1978
  158. Stream size                              : 17.8 MiB (0%)
  159. Title                                    : Spanish-PGS
  160. Language                                 : Spanish
  161. Default                                  : No
  162. Forced                                   : No
  163. Original source medium                   : Blu-ray

  164. Text #5
  165. ID                                       : 9
  166. ID in the original source medium         : 4771 (0x12A3)
  167. Format                                   : PGS
  168. Muxing mode                              : zlib
  169. Codec ID                                 : S_HDMV/PGS
  170. Codec ID/Info                            : Picture based subtitle format used on BDs/HD-DVDs
  171. Duration                                 : 28 min 15 s
  172. Bit rate                                 : 469 b/s
  173. Count of elements                        : 8
  174. Stream size                              : 97.1 KiB (0%)
  175. Title                                    : French-FORCED-PGS
  176. Language                                 : French
  177. Default                                  : No
  178. Forced                                   : No
  179. Original source medium                   : Blu-ray

  180. Menu
  181. 00:00:00.000                             : en:Chapter 01
  182. 00:08:30.593                             : en:Chapter 02
  183. 00:17:35.095                             : en:Chapter 03
  184. 00:27:06.625                             : en:Chapter 04
  185. 00:35:31.170                             : en:Chapter 05
  186. 00:44:35.673                             : en:Chapter 06
  187. 00:53:16.067                             : en:Chapter 07
  188. 01:01:53.543                             : en:Chapter 08
  189. 01:08:14.340                             : en:Chapter 09
  190. 01:17:38.195                             : en:Chapter 10
  191. 01:26:54.667                             : en:Chapter 11
复制代码

黑暗正义同盟:天启星战争 Justice.League.Dark.Apokolips.War.2020.2160p.BluRay.REMUX.HEVC.DTS-HD.MA.5.1-FGT 33.24GB-2.png 黑暗正义同盟:天启星战争 Justice.League.Dark.Apokolips.War.2020.2160p.BluRay.REMUX.HEVC.DTS-HD.MA.5.1-FGT 33.24GB-3.png 黑暗正义同盟:天启星战争 Justice.League.Dark.Apokolips.War.2020.2160p.BluRay.REMUX.HEVC.DTS-HD.MA.5.1-FGT 33.24GB-4.png







本帖隐藏的下载地址需要VIP会员才可阅读,您需要升级才可阅读,点击这里升级VIP
回复

使用道具 举报

级别:群众演员 Lv.3

注册时间
2020-1-21
最后登录
2020-5-28
听众
1
收听
0
主题
0
蓝光币
334 枚
贡献
0 点
发表于 3 天前 | 显示全部楼层

楼主太厉害了!楼主,电影应该很好看我觉得中国高清电影网真是个好地方!
回复

使用道具 举报

懒得打字嘛,点击右侧快捷回复 【右侧内容,后台自定义】
您需要登录后才可以回帖 登录 | 立即注册

本版积分规则

Archiver|手机版|小黑屋| 中国高清网 ( ICP备17007870号-2 ) |网站地图 

GMT+8, 2020-5-28 15:30 , Processed in 0.171382 second(s), 39 queries .

Powered by HDchina X3.4

Copyright 2017-2019©HDchina.All right reserved

返回顶部 联系我们