查看: 105|回复: 0

[10bit.HDR] 黑暗正义联盟:天启星战争 Justice.League.Dark.Apokolips.War.2020.2160p.UHD.BluRay.X265.10bit.HDR.DTS-HD.MA.5.1-AViATOR 3.50GB

[复制链接]

 成长值: 5460

级别:资源管理组

注册时间
2017-10-20
最后登录
2020-5-28
听众
1
收听
0
主题
96229
蓝光币
152016 枚
贡献
20607 点
发表于 6 天前 | 显示全部楼层 |阅读模式
黑暗正义同盟:天启星战争 Justice.League.Dark.Apokolips.War.2020.2160p.UHD.BluRay.X265.10bit.HDR.DTS-HD.MA.5.1-AViATOR 3.50GB-1.png

译  名 黑暗正义同盟:天启星战争
片  名 Justice League Dark: Apokolips War
年  代 2020
产  地 美国
类  别 动画
语  言 英语
上映日期 2020-05-05(美国)
IMDb评分  7.9/10 from 6668 users
IMDb链接  https://www.imdb.com/title/tt11079148
豆瓣评分 7.3/10 from 6032 users
豆瓣链接 https://movie.douban.com/subject/34777818/
片  长 90分钟
导  演 马特·皮特斯 Matt Peters / 克里斯蒂娜·索塔 Christina Sotta
编  剧 厄尼·阿特巴克 Ernie Altbacker / 麦格里德·斯科特 Mairghread Scott
主  演 托尼·托德 Tony Todd
       丽贝卡·罗梅恩 Rebecca Romijn
       罗莎里奥·道森 Rosario Dawson
       雷恩·威尔森 Rainn Wilson
       卡米拉·卢丁顿 Camilla Luddington
       泰莎·法米加 Taissa Farmiga
       杰瑞·奥康奈尔 Jerry O'Connell
       谢默·摩尔 Shemar Moore
       克里斯托弗·戈勒姆 Christopher Gorham
       马特·瑞安 Matt Ryan
       杰森·奥玛拉 Jason O'Mara
       连姆·麦肯泰尔 Liam McIntyre
       约翰·迪·马吉欧 John Di Maggio
       海登·瓦尔希 Hynden Walch
       罗杰·R.克劳斯 Roger R. Cross
       雷·蔡斯 Ray Chase
       斯图尔特·艾伦 Stuart Allan
       萨奇·阿莱西奥 Sachie Alessio


标  签 DC | 动画 | 正义同盟 | 超级豪杰 | 美国 | DC动漫 | 漫画改编 | 科幻

简  介  

  正义同盟集结地球上一切超级豪杰一路匹敌强大的反派达克赛德。

  1. Video
  2. ID                                       : 1
  3. Format                                   : HEVC
  4. Format/Info                              : High Efficiency Video Coding
  5. Format profile                           : Main 10@L5.1@High
  6. HDR format                               : SMPTE ST 2086, HDR10 compatible
  7. Codec ID                                 : V_MPEGH/ISO/HEVC
  8. Duration                                 : 1 h 30 min
  9. Bit rate                                 : 3 141 kb/s
  10. Width                                    : 3 840 pixels
  11. Height                                   : 2 160 pixels
  12. Display aspect ratio                     : 16:9
  13. Frame rate mode                          : Constant
  14. Frame rate                               : 23.976 (24000/1001/45165) FPS
  15. Color space                              : YUV
  16. Chroma subsampling                       : 4:2:0 (Type 2)
  17. Bit depth                                : 10 bits
  18. Bits/(Pixel*Frame)                       : 0.016
  19. Stream size                              : 1.98 GiB (57%)
  20. Writing library                          : x265 3.3+21-6bb2d88029c2:[Windows][GCC 10.0.1][64 bit] 10bit
  21. Encoding settings                        : cpuid=1176575 / frame-threads=6 / numa-pools=36 / wpp / no-pmode / no-pme / no-psnr / no-ssim / log-level=2 / input-csp=1 / input-res=3840x2160 / interlace=0 / total-frames=129726 / level-idc=51 / high-tier=1 / uhd-bd=0 / ref=4 / no-allow-non-conformance / repeat-headers / annexb / aud / hrd / info / hash=0 / no-temporal-layers / open-gop / min-keyint=23 / keyint=250 / gop-lookahead=0 / bframes=6 / b-adapt=2 / b-pyramid / bframe-bias=0 / rc-lookahead=25 / lookahead-slices=4 / scenecut=40 / hist-scenecut=0 / radl=0 / no-splice / no-intra-refresh / ctu=64 / min-cu-size=8 / rect / no-amp / max-tu-size=32 / tu-inter-depth=1 / tu-intra-depth=1 / limit-tu=0 / rdoq-level=2 / dynamic-rd=0.00 / no-ssim-rd / signhide / no-tskip / nr-intra=0 / nr-inter=0 / no-constrained-intra / strong-intra-smoothing / max-merge=3 / limit-refs=3 / limit-modes / me=3 / subme=3 / merange=57 / temporal-mvp / no-frame-dup / no-hme / weightp / no-weightb / no-analyze-src-pics / deblock=1:1 / no-sao / no-sao-non-deblock / rd=4 / selective-sao=0 / no-early-skip / rskip / no-fast-intra / no-tskip-fast / no-cu-lossless / no-b-intra / no-splitrd-skip / rdpenalty=0 / psy-rd=0.40 / psy-rdoq=1.00 / no-rd-refine / no-lossless / cbqpoffs=0 / crqpoffs=0 / rc=crf / crf=14.0 / qcomp=0.60 / qpstep=4 / stats-write=0 / stats-read=0 / vbv-maxrate=160000 / vbv-bufsize=160000 / vbv-init=0.9 / crf-max=0.0 / crf-min=0.0 / ipratio=1.40 / pbratio=1.30 / aq-mode=2 / aq-strength=0.40 / cutree / zone-count=0 / no-strict-cbr / qg-size=32 / no-rc-grain / qpmax=69 / qpmin=0 / no-const-vbv / sar=1 / overscan=0 / videoformat=5 / range=0 / colorprim=9 / transfer=16 / colormatrix=9 / chromaloc=1 / chromaloc-top=2 / chromaloc-bottom=2 / display-window=0 / master-display=G(13250,34500)B(7500,3000)R(34000,16000)WP(15635,16450)L(40000000,50) / cll=343,106 / min-luma=0 / max-luma=1023 / log2-max-poc-lsb=8 / vui-timing-info / vui-hrd-info / slices=1 / no-opt-qp-pps / no-opt-ref-list-length-pps / no-multi-pass-opt-rps / scenecut-bias=0.05 / hist-threshold=0.01 / no-opt-cu-delta-qp / no-aq-motion / hdr10 / hdr10-opt / no-dhdr10-opt / no-idr-recovery-sei / analysis-reuse-level=0 / analysis-save-reuse-level=0 / analysis-load-reuse-level=0 / scale-factor=0 / refine-intra=0 / refine-inter=0 / refine-mv=1 / refine-ctu-distortion=0 / no-limit-sao / ctu-info=0 / no-lowpass-dct / refine-analysis-type=0 / copy-pic=1 / max-ausize-factor=1.0 / no-dynamic-refine / no-single-sei / no-hevc-aq / no-svt / no-field / qp-adaptation-range=1.00 / no-scenecut-aware-qpconformance-window-offsets / right=0 / bottom=0 / decoder-max-rate=0
  22. Default                                  : Yes
  23. Forced                                   : No
  24. Color range                              : Limited
  25. Color primaries                          : BT.2020
  26. Transfer characteristics                 : PQ
  27. Matrix coefficients                      : BT.2020 non-constant
  28. Mastering display color primaries        : Display P3
  29. Mastering display luminance              : min: 0.0050 cd/m2, max: 4000 cd/m2
  30. Maximum Content Light Level              : 343 cd/m2
  31. Maximum Frame-Average Light Level        : 106 cd/m2
  32. Audio
  33. ID                                       : 2
  34. Format                                   : DTS XLL
  35. Format/Info                              : Digital Theater Systems
  36. Commercial name                          : DTS-HD Master Audio
  37. Codec ID                                 : A_DTS
  38. Duration                                 : 1 h 30 min
  39. Bit rate mode                            : Variable
  40. Bit rate                                 : 2 320 kb/s
  41. Channel(s)                               : 6 channels
  42. Channel layout                           : C L R Ls Rs LFE
  43. Sampling rate                            : 48.0 kHz
  44. Frame rate                               : 93.750 FPS (512 SPF)
  45. Bit depth                                : 16 bits
  46. Compression mode                         : Lossless
  47. Stream size                              : 1.46 GiB (42%)
  48. Language                                 : English
  49. Default                                  : Yes
  50. Forced                                   : No
  51. Text #1
  52. ID                                       : 3
  53. Format                                   : PGS
  54. Muxing mode                              : zlib
  55. Codec ID                                 : S_HDMV/PGS
  56. Codec ID/Info                            : Picture based subtitle format used on BDs/HD-DVDs
  57. Duration                                 : 1 h 25 min
  58. Bit rate                                 : 32.6 kb/s
  59. Count of elements                        : 2490
  60. Stream size                              : 19.9 MiB (1%)
  61. Title                                    : English SDH
  62. Language                                 : English
  63. Default                                  : No
  64. Forced                                   : No
  65. Text #2
  66. ID                                       : 4
  67. Format                                   : PGS
  68. Muxing mode                              : zlib
  69. Codec ID                                 : S_HDMV/PGS
  70. Codec ID/Info                            : Picture based subtitle format used on BDs/HD-DVDs
  71. Duration                                 : 1 h 29 min
  72. Bit rate                                 : 27.9 kb/s
  73. Count of elements                        : 1974
  74. Stream size                              : 17.8 MiB (1%)
  75. Title                                    : French
  76. Language                                 : French
  77. Default                                  : No
  78. Forced                                   : No
  79. Text #3
  80. ID                                       : 5
  81. Format                                   : PGS
  82. Muxing mode                              : zlib
  83. Codec ID                                 : S_HDMV/PGS
  84. Codec ID/Info                            : Picture based subtitle format used on BDs/HD-DVDs
  85. Duration                                 : 1 h 29 min
  86. Bit rate                                 : 27.9 kb/s
  87. Count of elements                        : 1978
  88. Stream size                              : 17.8 MiB (1%)
  89. Title                                    : Spanish
  90. Language                                 : Spanish
  91. Default                                  : No
  92. Forced                                   : No
  93. Text #4
  94. ID                                       : 6
  95. Format                                   : PGS
  96. Muxing mode                              : zlib
  97. Codec ID                                 : S_HDMV/PGS
  98. Codec ID/Info                            : Picture based subtitle format used on BDs/HD-DVDs
  99. Duration                                 : 28 min 15 s
  100. Bit rate                                 : 469 b/s
  101. Count of elements                        : 8
  102. Stream size                              : 97.1 KiB (0%)
  103. Title                                    : French
  104. Language                                 : French
  105. Default                                  : No
  106. Forced                                   : No
  107. Menu
  108. 00:00:00.000                             : en:Chapter 01
  109. 00:08:30.885                             : en:Chapter 02
  110. 00:17:35.096                             : en:Chapter 03
  111. 00:27:06.625                             : en:Chapter 04
  112. 00:35:31.171                             : en:Chapter 05
  113. 00:44:35.673                             : en:Chapter 06
  114. 00:53:16.110                             : en:Chapter 07
  115. 01:01:53.668                             : en:Chapter 08
  116. 01:08:14.340                             : en:Chapter 09
  117. 01:17:38.195                             : en:Chapter 10
  118. 01:26:55.043                             : en:Chapter 11
复制代码
172547a27abz11qrrujj11.png 172548cevtcu2f22e2cwwm.png 172548niyxqpspieynffb9.png



本帖隐藏的下载地址需要VIP会员才可阅读,您需要升级才可阅读,点击这里升级VIP

回复

使用道具 举报

懒得打字嘛,点击右侧快捷回复 【右侧内容,后台自定义】
您需要登录后才可以回帖 登录 | 立即注册

本版积分规则

Archiver|手机版|小黑屋| 中国高清网 ( ICP备17007870号-2 ) |网站地图 

GMT+8, 2020-5-28 15:16 , Processed in 0.155254 second(s), 39 queries .

Powered by HDchina X3.4

Copyright 2017-2019©HDchina.All right reserved

返回顶部 联系我们