查看: 79|回复: 0

[8bit.SDR] 霹雳男儿/雷声四起 Days.of.Thunder.1990.2160p.BluRay.x264.8bit.SDR.DTS-HD.MA.TrueHD.5.1-SWTYBLZ 69.71GB

[复制链接]

 成长值: 5460

级别:资源管理组

注册时间
2017-10-20
最后登录
2020-5-28
听众
1
收听
0
主题
96229
蓝光币
152044 枚
贡献
20607 点
发表于 6 天前 | 显示全部楼层 |阅读模式
轰隆男儿/雷声四起 Days.of.Thunder.1990.2160p.BluRay.x264.8bit.SDR.DTS-HD.MA.TrueHD.5.1-SWTYBLZ 69.71GB-1.png

译  名 轰隆男儿 / 雷声四起 / 雷霆壮志 / 雷鸣的日子
片  名 Days of Thunder
年  代 1990
产  地 美国
类  别 剧情 / 行动 / 恋爱 / 活动
语  言 英语
上映日期 1990-06-27
IMDb评分  6.0/10 from 75954 users
IMDb链接  https://www.imdb.com/title/tt0099371
豆瓣评分 6.8/10 from 1794 users
豆瓣链接 https://movie.douban.com/subject/1292746/
片  长 107 分钟
导  演 Tony Scott
编  剧 Robert Towne
主  演 Tom Cruise
       Nicole Kidman
       Robert Duvall


标  签 TomCruise | 美国 | NicoleKidman | 励志 | 汤姆·克鲁斯 | 恋爱 | 美国电影 | 1990

简  介  

  赛车版的《壮志凌云》
  杰克是一位职业赛车手,对成功和赛车冠军布满了渴望,在走出失利的阴影以后,他在女友的激励及赛车设想高手哈里的帮助下,决议再次应战对手联手向雷特那赛车冠军倡议了冲击。经过惊险万分角逐,最初终究赢得了冠军!

获奖情况  

  第63届奥斯卡金像奖(1991)
  最好声响(提名) Donald O. Mitchell / 凯文·奥康奈尔 / 里克·克莱恩 / Charles M. Wilborn
  1. Video
  2. ID                                       : 1
  3. Format                                   : AVC
  4. Format/Info                              : Advanced Video Codec
  5. Format profile                           : High@L4
  6. Format settings                          : CABAC / 5 Ref Frames
  7. Format settings, CABAC                   : Yes
  8. Format settings, Reference frames        : 5 frames
  9. Codec ID                                 : V_MPEG4/ISO/AVC
  10. Duration                                 : 1 h 47 min
  11. Bit rate                                 : 84.7 Mb/s
  12. Width                                    : 3 840 pixels
  13. Height                                   : 1 600 pixels
  14. Display aspect ratio                     : 2.40:1
  15. Frame rate mode                          : Constant
  16. Frame rate                               : 23.976 (24000/1001/189150) FPS
  17. Color space                              : YUV
  18. Chroma subsampling                       : 4:2:0
  19. Bit depth                                : 8 bits
  20. Scan type                                : Progressive
  21. Bits/(Pixel*Frame)                       : 0.575
  22. Stream size                              : 63.5 GiB (91%)
  23. Title                                    : Days.of.Thunder.1990.2160p.BluRay.x264.8bit.SDR.DTS-HD.MA.TrueHD.5.1-SWTYBLZ
  24. Writing library                          : x264 core 157 r2935 545de2f
  25. Encoding settings                        : cabac=1 / ref=5 / deblock=1:-1:-1 / analyse=0x3:0x113 / me=umh / subme=10 / psy=1 / psy_rd=1.00:0.15 / mixed_ref=1 / me_range=48 / chroma_me=1 / trellis=2 / 8x8dct=1 / cqm=0 / deadzone=21,11 / fast_pskip=1 / chroma_qp_offset=-3 / threads=48 / lookahead_threads=4 / sliced_threads=0 / nr=0 / decimate=0 / interlaced=0 / bluray_compat=0 / constrained_intra=0 / bframes=3 / b_pyramid=2 / b_adapt=2 / b_bias=0 / direct=3 / weightb=1 / open_gop=0 / weightp=2 / keyint=250 / keyint_min=23 / scenecut=40 / intra_refresh=0 / rc_lookahead=50 / rc=crf / mbtree=1 / crf=23.0 / qcomp=0.60 / qpmin=0 / qpmax=69 / qpstep=4 / ip_ratio=1.40 / aq=1:1.00
  26. Default                                  : Yes
  27. Forced                                   : No

  28. Audio #1
  29. ID                                       : 2
  30. ID in the original source medium         : 4352 (0x1100)
  31. Format                                   : MLP FBA
  32. Format/Info                              : Meridian Lossless Packing FBA
  33. Commercial name                          : Dolby TrueHD
  34. Codec ID                                 : A_TRUEHD
  35. Duration                                 : 1 h 47 min
  36. Bit rate mode                            : Variable
  37. Bit rate                                 : 3 334 kb/s
  38. Maximum bit rate                         : 4 758 kb/s
  39. Channel(s)                               : 6 channels
  40. Channel layout                           : L R C LFE Ls Rs
  41. Sampling rate                            : 48.0 kHz
  42. Frame rate                               : 1 200.000 FPS (40 SPF)
  43. Compression mode                         : Lossless
  44. Stream size                              : 2.50 GiB (4%)
  45. Title                                    : Days.of.Thunder.1990.2160p.BluRay.x264.8bit.SDR.DTS-HD.MA.TrueHD.5.1-SWTYBLZ
  46. Language                                 : English
  47. Default                                  : Yes
  48. Forced                                   : No
  49. Original source medium                   : Blu-ray

  50. Audio #2
  51. ID                                       : 3
  52. Format                                   : DTS XLL
  53. Format/Info                              : Digital Theater Systems
  54. Commercial name                          : DTS-HD Master Audio
  55. Codec ID                                 : A_DTS
  56. Duration                                 : 1 h 47 min
  57. Bit rate mode                            : Variable
  58. Bit rate                                 : 3 779 kb/s
  59. Channel(s)                               : 6 channels
  60. Channel layout                           : C L R Ls Rs LFE
  61. Sampling rate                            : 48.0 kHz
  62. Frame rate                               : 93.750 FPS (512 SPF)
  63. Bit depth                                : 24 bits
  64. Compression mode                         : Lossless
  65. Stream size                              : 2.83 GiB (4%)
  66. Title                                    : Days.of.Thunder.1990.2160p.BluRay.x264.8bit.SDR.DTS-HD.MA.TrueHD.5.1-SWTYBLZ
  67. Language                                 : English
  68. Default                                  : No
  69. Forced                                   : No

  70. Audio #3
  71. ID                                       : 4
  72. ID in the original source medium         : 4352 (0x1100)
  73. Format                                   : AC-3
  74. Format/Info                              : Audio Coding 3
  75. Commercial name                          : Dolby Digital
  76. Codec ID                                 : A_AC3
  77. Duration                                 : 1 h 47 min
  78. Bit rate mode                            : Constant
  79. Bit rate                                 : 640 kb/s
  80. Channel(s)                               : 6 channels
  81. Channel layout                           : L R C LFE Ls Rs
  82. Sampling rate                            : 48.0 kHz
  83. Frame rate                               : 31.250 FPS (1536 SPF)
  84. Bit depth                                : 16 bits
  85. Compression mode                         : Lossy
  86. Stream size                              : 491 MiB (1%)
  87. Title                                    : Days.of.Thunder.1990.2160p.BluRay.x264.8bit.SDR.DTS-HD.MA.TrueHD.5.1-SWTYBLZ
  88. Language                                 : English
  89. Service kind                             : Complete Main
  90. Default                                  : No
  91. Forced                                   : No
  92. Original source medium                   : Blu-ray

  93. Text #1
  94. ID                                       : 5
  95. Format                                   : UTF-8
  96. Codec ID                                 : S_TEXT/UTF8
  97. Codec ID/Info                            : UTF-8 Plain Text
  98. Duration                                 : 1 h 40 min
  99. Bit rate                                 : 64 b/s
  100. Count of elements                        : 1217
  101. Stream size                              : 47.9 KiB (0%)
  102. Title                                    : English-SRT
  103. Language                                 : English
  104. Default                                  : Yes
  105. Forced                                   : No

  106. Text #2
  107. ID                                       : 6
  108. ID in the original source medium         : 4768 (0x12A0)
  109. Format                                   : PGS
  110. Muxing mode                              : zlib
  111. Codec ID                                 : S_HDMV/PGS
  112. Codec ID/Info                            : Picture based subtitle format used on BDs/HD-DVDs
  113. Duration                                 : 1 h 40 min
  114. Bit rate                                 : 40.2 kb/s
  115. Count of elements                        : 2442
  116. Stream size                              : 29.0 MiB (0%)
  117. Title                                    : English-PGS
  118. Language                                 : English
  119. Default                                  : No
  120. Forced                                   : No
  121. Original source medium                   : Blu-ray

  122. Text #3
  123. ID                                       : 7
  124. ID in the original source medium         : 4769 (0x12A1)
  125. Format                                   : PGS
  126. Muxing mode                              : zlib
  127. Codec ID                                 : S_HDMV/PGS
  128. Codec ID/Info                            : Picture based subtitle format used on BDs/HD-DVDs
  129. Duration                                 : 1 h 41 min
  130. Bit rate                                 : 41.2 kb/s
  131. Count of elements                        : 2494
  132. Stream size                              : 29.8 MiB (0%)
  133. Title                                    : English-SDH-PGS
  134. Language                                 : English
  135. Default                                  : No
  136. Forced                                   : No
  137. Original source medium                   : Blu-ray

  138. Text #4
  139. ID                                       : 8
  140. ID in the original source medium         : 4770 (0x12A2)
  141. Format                                   : PGS
  142. Muxing mode                              : zlib
  143. Codec ID                                 : S_HDMV/PGS
  144. Codec ID/Info                            : Picture based subtitle format used on BDs/HD-DVDs
  145. Duration                                 : 1 h 45 min
  146. Bit rate                                 : 21.1 kb/s
  147. Count of elements                        : 2360
  148. Stream size                              : 15.9 MiB (0%)
  149. Title                                    : Arabic-PGS
  150. Language                                 : Arabic
  151. Default                                  : No
  152. Forced                                   : No
  153. Original source medium                   : Blu-ray

  154. Text #5
  155. ID                                       : 9
  156. ID in the original source medium         : 4771 (0x12A3)
  157. Format                                   : PGS
  158. Muxing mode                              : zlib
  159. Codec ID                                 : S_HDMV/PGS
  160. Codec ID/Info                            : Picture based subtitle format used on BDs/HD-DVDs
  161. Duration                                 : 1 h 45 min
  162. Bit rate                                 : 28.3 kb/s
  163. Count of elements                        : 2408
  164. Stream size                              : 21.3 MiB (0%)
  165. Title                                    : Chinese-PGS
  166. Language                                 : Chinese
  167. Default                                  : No
  168. Forced                                   : No
  169. Original source medium                   : Blu-ray

  170. Text #6
  171. ID                                       : 10
  172. ID in the original source medium         : 4772 (0x12A4)
  173. Format                                   : PGS
  174. Muxing mode                              : zlib
  175. Codec ID                                 : S_HDMV/PGS
  176. Codec ID/Info                            : Picture based subtitle format used on BDs/HD-DVDs
  177. Duration                                 : 1 h 45 min
  178. Bit rate                                 : 35.1 kb/s
  179. Count of elements                        : 2426
  180. Stream size                              : 26.4 MiB (0%)
  181. Title                                    : Danish-PGS
  182. Language                                 : Danish
  183. Default                                  : No
  184. Forced                                   : No
  185. Original source medium                   : Blu-ray

  186. Text #7
  187. ID                                       : 11
  188. ID in the original source medium         : 4773 (0x12A5)
  189. Format                                   : PGS
  190. Muxing mode                              : zlib
  191. Codec ID                                 : S_HDMV/PGS
  192. Codec ID/Info                            : Picture based subtitle format used on BDs/HD-DVDs
  193. Duration                                 : 1 h 45 min
  194. Bit rate                                 : 32.5 kb/s
  195. Count of elements                        : 2378
  196. Stream size                              : 24.4 MiB (0%)
  197. Title                                    : German-PGS
  198. Language                                 : German
  199. Default                                  : No
  200. Forced                                   : No
  201. Original source medium                   : Blu-ray

  202. Text #8
  203. ID                                       : 12
  204. ID in the original source medium         : 4774 (0x12A6)
  205. Format                                   : PGS
  206. Muxing mode                              : zlib
  207. Codec ID                                 : S_HDMV/PGS
  208. Codec ID/Info                            : Picture based subtitle format used on BDs/HD-DVDs
  209. Duration                                 : 1 h 45 min
  210. Bit rate                                 : 31.9 kb/s
  211. Count of elements                        : 2586
  212. Stream size                              : 24.0 MiB (0%)
  213. Title                                    : Greek-PGS
  214. Language                                 : Greek
  215. Default                                  : No
  216. Forced                                   : No
  217. Original source medium                   : Blu-ray

  218. Text #9
  219. ID                                       : 13
  220. ID in the original source medium         : 4775 (0x12A7)
  221. Format                                   : PGS
  222. Muxing mode                              : zlib
  223. Codec ID                                 : S_HDMV/PGS
  224. Codec ID/Info                            : Picture based subtitle format used on BDs/HD-DVDs
  225. Duration                                 : 1 h 45 min
  226. Bit rate                                 : 36.2 kb/s
  227. Count of elements                        : 2408
  228. Stream size                              : 27.2 MiB (0%)
  229. Title                                    : Spanish-PGS
  230. Language                                 : Spanish
  231. Default                                  : No
  232. Forced                                   : No
  233. Original source medium                   : Blu-ray

  234. Text #10
  235. ID                                       : 14
  236. ID in the original source medium         : 4775 (0x12A7)
  237. Format                                   : PGS
  238. Muxing mode                              : zlib
  239. Codec ID                                 : S_HDMV/PGS
  240. Codec ID/Info                            : Picture based subtitle format used on BDs/HD-DVDs
  241. Duration                                 : 1 h 43 min
  242. Bit rate                                 : 158 b/s
  243. Count of elements                        : 12
  244. Stream size                              : 121 KiB (0%)
  245. Title                                    : Spanish-PGS
  246. Language                                 : Spanish
  247. Default                                  : No
  248. Forced                                   : No
  249. Original source medium                   : Blu-ray

  250. Text #11
  251. ID                                       : 15
  252. ID in the original source medium         : 4777 (0x12A9)
  253. Format                                   : PGS
  254. Muxing mode                              : zlib
  255. Codec ID                                 : S_HDMV/PGS
  256. Codec ID/Info                            : Picture based subtitle format used on BDs/HD-DVDs
  257. Duration                                 : 1 h 45 min
  258. Bit rate                                 : 29.2 kb/s
  259. Count of elements                        : 2396
  260. Stream size                              : 22.0 MiB (0%)
  261. Title                                    : French-PGS
  262. Language                                 : French
  263. Default                                  : No
  264. Forced                                   : No
  265. Original source medium                   : Blu-ray

  266. Text #12
  267. ID                                       : 16
  268. ID in the original source medium         : 4778 (0x12AA)
  269. Format                                   : PGS
  270. Muxing mode                              : zlib
  271. Codec ID                                 : S_HDMV/PGS
  272. Codec ID/Info                            : Picture based subtitle format used on BDs/HD-DVDs
  273. Duration                                 : 1 h 45 min
  274. Bit rate                                 : 25.4 kb/s
  275. Count of elements                        : 1786
  276. Stream size                              : 19.1 MiB (0%)
  277. Title                                    : Icelandic-PGS
  278. Language                                 : Icelandic
  279. Default                                  : No
  280. Forced                                   : No
  281. Original source medium                   : Blu-ray

  282. Text #13
  283. ID                                       : 17
  284. ID in the original source medium         : 4779 (0x12AB)
  285. Format                                   : PGS
  286. Muxing mode                              : zlib
  287. Codec ID                                 : S_HDMV/PGS
  288. Codec ID/Info                            : Picture based subtitle format used on BDs/HD-DVDs
  289. Duration                                 : 1 h 45 min
  290. Bit rate                                 : 34.8 kb/s
  291. Count of elements                        : 2384
  292. Stream size                              : 26.1 MiB (0%)
  293. Title                                    : Italian-PGS
  294. Language                                 : Italian
  295. Default                                  : No
  296. Forced                                   : No
  297. Original source medium                   : Blu-ray

  298. Text #14
  299. ID                                       : 18
  300. ID in the original source medium         : 4780 (0x12AC)
  301. Format                                   : PGS
  302. Muxing mode                              : zlib
  303. Codec ID                                 : S_HDMV/PGS
  304. Codec ID/Info                            : Picture based subtitle format used on BDs/HD-DVDs
  305. Duration                                 : 1 h 40 min
  306. Bit rate                                 : 24.1 kb/s
  307. Count of elements                        : 2182
  308. Stream size                              : 17.4 MiB (0%)
  309. Title                                    : Japanese-PGS
  310. Language                                 : Japanese
  311. Default                                  : No
  312. Forced                                   : No
  313. Original source medium                   : Blu-ray

  314. Text #15
  315. ID                                       : 19
  316. ID in the original source medium         : 4781 (0x12AD)
  317. Format                                   : PGS
  318. Muxing mode                              : zlib
  319. Codec ID                                 : S_HDMV/PGS
  320. Codec ID/Info                            : Picture based subtitle format used on BDs/HD-DVDs
  321. Duration                                 : 1 h 45 min
  322. Bit rate                                 : 17.2 kb/s
  323. Count of elements                        : 2292
  324. Stream size                              : 13.0 MiB (0%)
  325. Title                                    : Korean-PGS
  326. Language                                 : Korean
  327. Default                                  : No
  328. Forced                                   : No
  329. Original source medium                   : Blu-ray

  330. Text #16
  331. ID                                       : 20
  332. ID in the original source medium         : 4782 (0x12AE)
  333. Format                                   : PGS
  334. Muxing mode                              : zlib
  335. Codec ID                                 : S_HDMV/PGS
  336. Codec ID/Info                            : Picture based subtitle format used on BDs/HD-DVDs
  337. Duration                                 : 1 h 45 min
  338. Bit rate                                 : 35.4 kb/s
  339. Count of elements                        : 2402
  340. Stream size                              : 26.6 MiB (0%)
  341. Title                                    : Dutch-PGS
  342. Language                                 : Dutch
  343. Default                                  : No
  344. Forced                                   : No
  345. Original source medium                   : Blu-ray

  346. Text #17
  347. ID                                       : 21
  348. ID in the original source medium         : 4783 (0x12AF)
  349. Format                                   : PGS
  350. Muxing mode                              : zlib
  351. Codec ID                                 : S_HDMV/PGS
  352. Codec ID/Info                            : Picture based subtitle format used on BDs/HD-DVDs
  353. Duration                                 : 1 h 45 min
  354. Bit rate                                 : 33.7 kb/s
  355. Count of elements                        : 2384
  356. Stream size                              : 25.3 MiB (0%)
  357. Title                                    : Norwegian-PGS
  358. Language                                 : Norwegian
  359. Default                                  : No
  360. Forced                                   : No
  361. Original source medium                   : Blu-ray

  362. Text #18
  363. ID                                       : 22
  364. ID in the original source medium         : 4784 (0x12B0)
  365. Format                                   : PGS
  366. Muxing mode                              : zlib
  367. Codec ID                                 : S_HDMV/PGS
  368. Codec ID/Info                            : Picture based subtitle format used on BDs/HD-DVDs
  369. Duration                                 : 1 h 45 min
  370. Bit rate                                 : 29.5 kb/s
  371. Count of elements                        : 2184
  372. Stream size                              : 22.3 MiB (0%)
  373. Title                                    : Portuguese-PGS
  374. Language                                 : Portuguese
  375. Default                                  : No
  376. Forced                                   : No
  377. Original source medium                   : Blu-ray

  378. Text #19
  379. ID                                       : 23
  380. ID in the original source medium         : 4785 (0x12B1)
  381. Format                                   : PGS
  382. Muxing mode                              : zlib
  383. Codec ID                                 : S_HDMV/PGS
  384. Codec ID/Info                            : Picture based subtitle format used on BDs/HD-DVDs
  385. Duration                                 : 1 h 45 min
  386. Bit rate                                 : 33.2 kb/s
  387. Count of elements                        : 2456
  388. Stream size                              : 25.1 MiB (0%)
  389. Title                                    : Romanian-PGS
  390. Language                                 : Romanian
  391. Default                                  : No
  392. Forced                                   : No
  393. Original source medium                   : Blu-ray

  394. Text #20
  395. ID                                       : 24
  396. ID in the original source medium         : 4786 (0x12B2)
  397. Format                                   : PGS
  398. Muxing mode                              : zlib
  399. Codec ID                                 : S_HDMV/PGS
  400. Codec ID/Info                            : Picture based subtitle format used on BDs/HD-DVDs
  401. Duration                                 : 1 h 45 min
  402. Bit rate                                 : 35.7 kb/s
  403. Count of elements                        : 2392
  404. Stream size                              : 26.8 MiB (0%)
  405. Title                                    : Finnish-PGS
  406. Language                                 : Finnish
  407. Default                                  : No
  408. Forced                                   : No
  409. Original source medium                   : Blu-ray

  410. Text #21
  411. ID                                       : 25
  412. ID in the original source medium         : 4787 (0x12B3)
  413. Format                                   : PGS
  414. Muxing mode                              : zlib
  415. Codec ID                                 : S_HDMV/PGS
  416. Codec ID/Info                            : Picture based subtitle format used on BDs/HD-DVDs
  417. Duration                                 : 1 h 45 min
  418. Bit rate                                 : 34.6 kb/s
  419. Count of elements                        : 2394
  420. Stream size                              : 26.0 MiB (0%)
  421. Title                                    : Swedish-PGS
  422. Language                                 : Swedish
  423. Default                                  : No
  424. Forced                                   : No
  425. Original source medium                   : Blu-ray

  426. Text #22
  427. ID                                       : 26
  428. ID in the original source medium         : 4788 (0x12B4)
  429. Format                                   : PGS
  430. Muxing mode                              : zlib
  431. Codec ID                                 : S_HDMV/PGS
  432. Codec ID/Info                            : Picture based subtitle format used on BDs/HD-DVDs
  433. Duration                                 : 1 h 45 min
  434. Bit rate                                 : 25.0 kb/s
  435. Count of elements                        : 2352
  436. Stream size                              : 18.8 MiB (0%)
  437. Title                                    : Thai-PGS
  438. Language                                 : Thai
  439. Default                                  : No
  440. Forced                                   : No
  441. Original source medium                   : Blu-ray

  442. Menu
  443. 00:00:00.000                             : en:Chapter 01
  444. 00:03:39.260                             : en:Chapter 02
  445. 00:05:36.878                             : en:Chapter 03
  446. 00:12:51.812                             : en:Chapter 04
  447. 00:14:36.041                             : en:Chapter 05
  448. 00:18:27.564                             : en:Chapter 06
  449. 00:24:49.779                             : en:Chapter 07
  450. 00:31:40.815                             : en:Chapter 08
  451. 00:36:25.975                             : en:Chapter 09
  452. 00:41:13.471                             : en:Chapter 10
  453. 00:45:05.369                             : en:Chapter 11
  454. 00:51:03.185                             : en:Chapter 12
  455. 00:53:32.584                             : en:Chapter 13
  456. 00:56:15.413                             : en:Chapter 14
  457. 01:01:38.444                             : en:Chapter 15
  458. 01:04:12.723                             : en:Chapter 16
  459. 01:11:31.954                             : en:Chapter 17
  460. 01:15:22.434                             : en:Chapter 18
  461. 01:20:36.957                             : en:Chapter 19
  462. 01:27:29.244                             : en:Chapter 20
  463. 01:33:12.670                             : en:Chapter 21
  464. 01:38:40.164                             : en:Chapter 22
  465. 01:43:11.018                             : en:Chapter 23
复制代码

轰隆男儿/雷声四起 Days.of.Thunder.1990.2160p.BluRay.x264.8bit.SDR.DTS-HD.MA.TrueHD.5.1-SWTYBLZ 69.71GB-2.png 轰隆男儿/雷声四起 Days.of.Thunder.1990.2160p.BluRay.x264.8bit.SDR.DTS-HD.MA.TrueHD.5.1-SWTYBLZ 69.71GB-3.png 轰隆男儿/雷声四起 Days.of.Thunder.1990.2160p.BluRay.x264.8bit.SDR.DTS-HD.MA.TrueHD.5.1-SWTYBLZ 69.71GB-4.png 轰隆男儿/雷声四起 Days.of.Thunder.1990.2160p.BluRay.x264.8bit.SDR.DTS-HD.MA.TrueHD.5.1-SWTYBLZ 69.71GB-5.png 轰隆男儿/雷声四起 Days.of.Thunder.1990.2160p.BluRay.x264.8bit.SDR.DTS-HD.MA.TrueHD.5.1-SWTYBLZ 69.71GB-6.png 轰隆男儿/雷声四起 Days.of.Thunder.1990.2160p.BluRay.x264.8bit.SDR.DTS-HD.MA.TrueHD.5.1-SWTYBLZ 69.71GB-7.png






本帖隐藏的下载地址需要VIP会员才可阅读,您需要升级才可阅读,点击这里升级VIP
回复

使用道具 举报

懒得打字嘛,点击右侧快捷回复 【右侧内容,后台自定义】
您需要登录后才可以回帖 登录 | 立即注册

本版积分规则

Archiver|手机版|小黑屋| 中国高清网 ( ICP备17007870号-2 ) |网站地图 

GMT+8, 2020-5-28 16:17 , Processed in 0.217253 second(s), 39 queries .

Powered by HDchina X3.4

Copyright 2017-2019©HDchina.All right reserved

返回顶部 联系我们