查看: 50|回复: 1

[剧情片] 金蛇美女 Cobra.Woman.1944.720p.BluRay.x264-WUTANG 4.50GB

[复制链接]

 成长值: 5460

级别:资源管理组

注册时间
2017-10-20
最后登录
2020-5-28
听众
1
收听
0
主题
96235
蓝光币
152170 枚
贡献
20613 点
发表于 6 天前 | 显示全部楼层 |阅读模式
金蛇美男 Cobra.Woman.1944.720p.BluRay.x264-WUTANG 4.50GB-1.png 6 a  b% w$ s: t& c- j
8 b! P! S8 h7 R* C) a- W9 x$ p' c
译  名 金蛇美男* r+ p/ I' w/ u' d$ B
片  名 Cobra Woman$ G6 Q% s- B3 n$ b4 Y7 ]& i8 w
年  代 19448 q' ]: }. L( p7 Z2 X' m8 ]
产  地 美国/ z. ^$ A# A) ^$ M0 `5 I% U
类  别 剧情 / 冒险
' N- }' \$ T7 m语  言 英语5 w7 H: \, I. h) @
上映日期 1944-12-26
% B7 _9 H, y+ M5 _( q  q1 WIMDb评分  5.8/10 from 903 users
! F0 S  C. P6 W9 SIMDb链接  https://www.imdb.com/title/tt0036716
4 X) \1 p6 \; s( b4 k豆瓣评分 0/10 from 0 users, J" O3 r+ ~! P& F: @% }% I' P
豆瓣链接 https://movie.douban.com/subject/2239670/9 O8 y& ~+ a8 }
片  长 71 分钟
* ~& t+ `) L/ c0 @导  演 Robert Siodmak
! w# N) C9 B# P2 X$ Z. g# ^编  剧 Gene Lewis / 理查德·布鲁克斯 Richard Brooks
7 R! [9 s1 S4 x* ]( z主  演 Maria Montez
; L% C2 q* c6 |$ ^  n: A7 |" w3 t1 F. x
2 d% r0 {8 o# \) @
标  签 Robert_Siodmak | RobertSiodmak | 1940s | 美国电影 | 电影 | 美国 | 已下 | 剧情
* W( m$ r5 h' g0 }: z9 }, L/ y' e0 e
简  介  . r' h' S8 _' v: l$ J) r% g) V

- X% m7 m( v9 M( r1 s  暂无相关剧情先容
! p1 F* r# t! h8 ?, k
  1. Video6 t' o- Z2 q: R6 H$ M1 K
  2. ID                                       : 17 o" @$ N7 Y2 J9 T
  3. Format                                   : AVC
    # R) h* X: k' ?, h" K
  4. Format/Info                              : Advanced Video Codec) I$ C0 c4 k1 E# f- S9 T
  5. Format profile                           : High@L4
    9 W. W5 u4 J0 y2 S' z
  6. Format settings                          : CABAC / 8 Ref Frames$ D% a6 C' M1 U; }! ?
  7. Format settings, CABAC                   : Yes
    % t# d% }) |3 j( Q% x# L
  8. Format settings, Reference frames        : 8 frames
    5 X' C& o3 C' i/ X5 W7 e
  9. Codec ID                                 : V_MPEG4/ISO/AVC
    7 t& v# E6 ?, d) p
  10. Duration                                 : 1 h 10 min, c7 A) t4 w, r" T- k! N
  11. Bit rate                                 : 8 765 kb/s
    8 N% u1 H; r% d/ O( g
  12. Width                                    : 976 pixels
    3 t! x7 k' ^# t0 h6 G; R- H
  13. Height                                   : 720 pixels
    ! @/ M  J! E" h
  14. Display aspect ratio                     : 4:38 v& J5 c7 }- O- y
  15. Frame rate mode                          : Constant
    ' i/ ^3 F+ G2 t0 t
  16. Frame rate                               : 23.976 (24000/1001/189150) FPS
    + A: y: x# \* t! ~5 U% b
  17. Color space                              : YUV" X$ ~: |: B+ U
  18. Chroma subsampling                       : 4:2:0
    , S5 Q$ {3 ?% ]- a; m" ^
  19. Bit depth                                : 8 bits
    ) @" ]; N( ?9 G# l
  20. Scan type                                : Progressive- u: N! x( A* S- \1 c/ F, v
  21. Bits/(Pixel*Frame)                       : 0.520
    9 x% }5 N9 C+ X4 V
  22. Stream size                              : 4.31 GiB (96%)
    6 y5 v% C. E& e3 q0 L) l
  23. Writing library                          : x264 core 160 r3000 33f9e14& x6 h5 x) N# C9 D% F3 w6 R
  24. Encoding settings                        : cabac=1 / ref=8 / deblock=1:-3:-3 / analyse=0x3:0x133 / me=umh / subme=9 / psy=1 / psy_rd=1.00:0.00 / mixed_ref=1 / me_range=24 / chroma_me=1 / trellis=2 / 8x8dct=1 / cqm=0 / deadzone=21,11 / fast_pskip=0 / chroma_qp_offset=-2 / threads=22 / lookahead_threads=3 / sliced_threads=0 / nr=0 / decimate=1 / interlaced=0 / bluray_compat=0 / constrained_intra=0 / bframes=8 / b_pyramid=2 / b_adapt=2 / b_bias=0 / direct=3 / weightb=1 / open_gop=0 / weightp=2 / keyint=250 / keyint_min=23 / scenecut=40 / intra_refresh=0 / rc=crf / mbtree=0 / crf=17.0 / qcomp=0.60 / qpmin=0 / qpmax=69 / qpstep=4 / ip_ratio=1.40 / pb_ratio=1.30 / aq=3:0.70' ]  t7 j2 |  b: J) Z7 O
  25. Default                                  : Yes6 a! X. _  I0 S/ f0 \7 e  T/ D
  26. Forced                                   : No" N9 |) M0 Q3 ^2 c8 O
  27. Color range                              : Limited& u0 |9 R* r# @
  28. Matrix coefficients                      : BT.709
    ' z; E7 w9 a% Q6 w) C
  29. # P- S% B; B3 w' I) x, ~
  30. Audio #1
    0 G$ }/ p( d) S
  31. ID                                       : 2
    # Y1 J4 ?7 y$ l8 l) p" s  g* s
  32. Format                                   : FLAC/ ~3 w; m% W+ C' J. T
  33. Format/Info                              : Free Lossless Audio Codec6 ?, x% v8 G) T. A( K- Z
  34. Codec ID                                 : A_FLAC. V6 f/ r. z/ r1 \
  35. Duration                                 : 1 h 10 min7 c6 w4 ^% l1 r# R
  36. Bit rate mode                            : Variable+ _3 h4 O! C" h$ y4 b
  37. Bit rate                                 : 275 kb/s( r" L2 k6 G) L$ ^7 J! O0 r
  38. Channel(s)                               : 2 channels
    3 k& D5 L8 ^! d+ M
  39. Channel layout                           : L R
    : {2 c# T( m- P& ?7 |* }; X
  40. Sampling rate                            : 48.0 kHz
    4 U; n6 R, V: a; Y# V
  41. Frame rate                               : 11.719 FPS (4096 SPF)
      w3 F  p# e$ S& c& S  W. B% w/ y* T
  42. Bit depth                                : 16 bits% H0 U: O5 Q( Z: B8 p7 a
  43. Compression mode                         : Lossless
    # z) }2 U* S) M
  44. Stream size                              : 138 MiB (3%)
    0 Z. K! v$ V0 E) y; \
  45. Title                                    : English' M0 `% I7 z  B
  46. Writing library                          : libFLAC 1.3.3 (UTC 2019-08-04)
    $ g+ C  @' o, C6 C# N2 k
  47. Language                                 : English
    . Z7 r0 Q1 V4 Z
  48. Default                                  : Yes
    , K# L  t* ?1 }' ~- O3 ^
  49. Forced                                   : No! P7 J2 y% [, x& f7 U' u/ g: P
  50. % \& r0 K4 M, Y% Q
  51. Audio #2
    " @: W# W9 g/ v3 E; \$ n- ~
  52. ID                                       : 3' ^# n$ i$ w* U' {0 Q( E3 J
  53. Format                                   : AAC LC
    , f; H: V6 }  n2 }/ E
  54. Format/Info                              : Advanced Audio Codec Low Complexity) f, y/ j3 Y, t' J7 n
  55. Codec ID                                 : A_AAC-2
    4 l# c, u3 I% w: j7 x4 L
  56. Duration                                 : 1 h 10 min
      o( P$ ]' t7 r) j* C. x- _
  57. Bit rate                                 : 88.7 kb/s
    0 T* y. A1 q( I7 n( V$ t
  58. Channel(s)                               : 2 channels0 p: \8 l* P  R" }1 t! S& k1 _% p# R- P6 r
  59. Channel layout                           : L R
    # a4 H$ q5 a; k7 \$ I  h4 E
  60. Sampling rate                            : 48.0 kHz
    $ Y4 a9 C8 V5 o/ O
  61. Frame rate                               : 46.875 FPS (1024 SPF)+ _1 a* s/ U3 D4 A8 v
  62. Compression mode                         : Lossy
    % s( z8 T" u  P; ^$ n& p
  63. Delay relative to video                  : 9 ms
    ) }  P3 a2 ^! Y+ v6 {# E6 C
  64. Stream size                              : 44.7 MiB (1%); f% n: R4 V$ t
  65. Title                                    : Commentary by Film Historian Phillipa Berry
      I- [0 b7 [# P3 X6 M% z
  66. Language                                 : English1 |0 P' I; A5 k" w3 v
  67. Default                                  : No
    9 i; t- W& A0 g( W( e2 {% l
  68. Forced                                   : No: B1 b8 W1 @$ r

  69. + S1 B/ a" `1 i
  70. Text% e& |$ H0 O5 e7 Y# J1 q" U- D
  71. ID                                       : 4
    ! W0 m4 e8 J$ w; z8 I# H% a
  72. Format                                   : PGS. T+ R' \" T% E& ]' n8 h8 {) ]' ]! ]
  73. Muxing mode                              : zlib
    ! e2 f7 p$ U+ H: q2 y" Z+ @
  74. Codec ID                                 : S_HDMV/PGS% T" S, |' |+ v4 a
  75. Codec ID/Info                            : Picture based subtitle format used on BDs/HD-DVDs2 _6 y# A' U: n/ `
  76. Duration                                 : 1 h 10 min
    8 l( G. `  C5 R: y' D$ w3 D
  77. Bit rate                                 : 23.2 kb/s8 U' R! R! O8 P& D9 q
  78. Count of elements                        : 8633 i0 @8 S9 d" d' b! a
  79. Stream size                              : 11.6 MiB (0%)# F" R2 ^6 l3 w( Z  ?  b" z- F, H' M
  80. Language                                 : English2 q1 ^5 Z' ~& W- k( [9 s
  81. Default                                  : No' i& A7 H9 l4 i2 D& b
  82. Forced                                   : No
    - B3 h- }, S6 @% M) r9 f
  83. + C% m1 i4 ~( |0 X! V
  84. Menu
    6 \2 @. D! P8 Q) D
  85. 00:00:00.000                             : en:Chapter 01
    . W: F" o: b+ C0 T% f# ]2 B
  86. 00:11:56.467                             : en:Chapter 02+ A9 W6 e, |7 |2 c, J* [
  87. 00:15:52.244                             : en:Chapter 03
    9 p7 V! {% u: `9 S2 ~( a1 P
  88. 00:22:19.589                             : en:Chapter 04: X& L1 @$ H; y7 e1 C. x
  89. 00:33:39.018                             : en:Chapter 05( ~* {5 M# L. u9 x& P
  90. 00:42:44.646                             : en:Chapter 06, |* J6 @1 n8 k) {- U/ Y2 F) H
  91. 00:53:46.474                             : en:Chapter 077 d: A) z$ i" U2 ]
  92. 01:00:13.110                             : en:Chapter 08
复制代码

' X. |+ ]. i2 ^# L' E% v& w 金蛇美男 Cobra.Woman.1944.720p.BluRay.x264-WUTANG 4.50GB-2.png
6 u5 Z* P" `, V( u' G5 @
/ J8 @3 y0 [1 Q. G! ^. s
9 s* j& z7 j0 R1 [5 }, t/ e
/ X) @4 n3 b7 S& ]3 Q0 s% [
% K6 h: Y/ k! y( }3 Y' B% P9 R$ @& c0 M: F, y# W' q: X

) i" k% @4 y4 [# {, r
回复

使用道具 举报

 成长值: 1290

级别:尊贵的会员

注册时间
2020-3-1
最后登录
2020-5-28
听众
2
收听
0
主题
0
蓝光币
331 枚
贡献
0 点
发表于 4 天前 | 显示全部楼层
楼主发贴辛苦了,谢谢楼主分享!我觉得中国高清电影网是注册对了!
回复

使用道具 举报

懒得打字嘛,点击右侧快捷回复 【右侧内容,后台自定义】
您需要登录后才可以回帖 登录 | 立即注册

本版积分规则

Archiver|手机版|小黑屋| 中国高清网 ( ICP备17007870号-2 ) |网站地图 

GMT+8, 2020-5-28 20:35 , Processed in 0.165698 second(s), 39 queries .

Powered by HDchina X3.4

Copyright 2017-2019©HDchina.All right reserved

返回顶部 联系我们