查看: 30|回复: 1

[剧情片] 欧米茄综合症 Omega.Syndrome.1986.720p.BluRay.x264-YOL0W 6.20GB

[复制链接]

 成长值: 5460

级别:资源管理组

注册时间
2017-10-20
最后登录
2020-5-28
听众
1
收听
0
主题
96235
蓝光币
152168 枚
贡献
20613 点
发表于 6 天前 | 显示全部楼层 |阅读模式
欧米茄综合症 Omega.Syndrome.1986.720p.BluRay.x264-YOL0W 6.20GB-1.png # c( P+ ]1 S, ^2 i% l: A# n

& n9 u2 \! x6 [" L译  名 欧米茄综合症
& e! P  e' O, k, B片  名 Omega Syndrome! P, t/ V" T, m9 i7 d" k$ a$ H
年  代 1987
& Z; x5 \! t: U" \0 q$ P* F  h产  地 美国
, ?: E0 c0 _* Q; e" q8 |2 s- X: {9 \; r( h类  别 剧情 / 行动
) T4 k: M0 m, u4 k) y& [语  言 英语& t- ^! |+ |$ B' i1 q
上映日期 1987, u+ ]0 Y' ]- N- V
IMDb评分  4.3/10 from 171 users. C: g. k4 j. i6 `
IMDb链接  https://www.imdb.com/title/tt0093671
; o6 P" q& a! Z2 Q' f豆瓣评分 0/10 from 0 users& o8 d9 T& C( h
豆瓣链接 https://movie.douban.com/subject/5047367/# K- D& k3 U+ z+ G- l+ b, {) H1 u
片  长 90 分钟0 i  O, Q7 ^$ s6 l! H, y* f
导  演 Joseph Manduke
- C" G3 s# ]5 T) U编  剧 John Sharkey) }' u6 j1 n0 [' {
主  演 肯·沃尔 Ken Wahl
) o6 M5 b% a# n4 C, ^7 v5 Z       乔治·第桑佐 George DiCenzo* j# z  _. P& }4 y& j, B7 F
       妮可尔·埃格特 Nicole Eggert0 _' S6 v2 r, m6 k# E+ H$ t
       Xander Berkeley4 i: V8 I6 w! q* J
       Ron Kuhlman
/ U5 |9 U# e: D, U) i) \6 ]" A' p& j( G# E" o1 I$ h
& Y; D4 b& [. J' Q7 {/ {) _+ O7 O
标  签 被轻忽的电影% Y) ^" a, u0 N' M: Y9 ~4 F6 x
$ M, ^- w: H1 [8 g
简  介  
, `; J" s5 X5 x, h3 c. X3 m8 D% `  [7 }
  An ex-GI's daughter is abducted by a gang of white supremacists. He calls on one of his former Army buddies, and together they set out to track down the gang and rescue his daughter.9 u4 k; B& H' W& W5 p8 B
  1. Video- ^" U2 P+ T  I( \0 [
  2. ID                                       : 1
    , L8 U7 m0 w! Y$ y& [0 I
  3. Format                                   : AVC
    0 G6 f# r' [' ?( d5 s
  4. Format/Info                              : Advanced Video Codec4 N: ]0 B0 }% r* {/ n
  5. Format profile                           : High@L42 ~7 {, b4 Q2 a9 }  `
  6. Format settings                          : CABAC / 8 Ref Frames4 L. G9 o/ `1 h- ]
  7. Format settings, CABAC                   : Yes& [. I7 @6 v% v+ y
  8. Format settings, Reference frames        : 8 frames
    ! W! [8 K, F! u$ H* U; k+ _
  9. Codec ID                                 : V_MPEG4/ISO/AVC* w2 Q7 }2 J) Q2 @+ E
  10. Duration                                 : 1 h 29 min
    $ h$ b  b: a5 j3 V7 d
  11. Bit rate                                 : 8 387 kb/s
    , I4 t9 O, ^( s1 v# \- J) m! A% H9 C% O
  12. Width                                    : 1 280 pixels
    0 w4 b0 D) @$ F' d
  13. Height                                   : 720 pixels
    7 q# M$ r& G6 B. J7 t5 q
  14. Display aspect ratio                     : 16:9) P  X$ _% t; V6 _
  15. Frame rate mode                          : Constant6 n3 H5 F. _; }1 _# {+ R
  16. Frame rate                               : 23.976 (24000/1001/189150) FPS
    0 x! ?" j+ m0 v: u
  17. Color space                              : YUV
    4 s$ D' t. [6 b& E$ P; ~
  18. Chroma subsampling                       : 4:2:0
    2 y, n5 p/ ]1 N0 W5 F9 q3 I
  19. Bit depth                                : 8 bits
    , v3 V0 K4 A2 H+ a+ z
  20. Scan type                                : Progressive! g8 Z" C: e) R9 E  H3 y& Y: E
  21. Bits/(Pixel*Frame)                       : 0.380
    7 G$ _& k0 I1 F: h
  22. Stream size                              : 5.22 GiB (84%)
    0 i, {% ^2 x3 t+ H+ k
  23. Writing library                          : x264 core 160 r3000 33f9e14
    / o) Y- ~6 P( J4 Q( |: E6 ^
  24. Encoding settings                        : cabac=1 / ref=8 / deblock=1:-3:-3 / analyse=0x3:0x133 / me=umh / subme=9 / psy=1 / psy_rd=1.00:0.00 / mixed_ref=1 / me_range=16 / chroma_me=1 / trellis=2 / 8x8dct=1 / cqm=0 / deadzone=21,11 / fast_pskip=0 / chroma_qp_offset=-2 / threads=16 / lookahead_threads=2 / sliced_threads=0 / nr=0 / decimate=0 / interlaced=0 / bluray_compat=0 / constrained_intra=0 / bframes=8 / b_pyramid=2 / b_adapt=2 / b_bias=0 / direct=3 / weightb=1 / open_gop=0 / weightp=2 / keyint=250 / keyint_min=23 / scenecut=40 / intra_refresh=0 / rc=crf / mbtree=0 / crf=16.5 / qcomp=0.60 / qpmin=0 / qpmax=69 / qpstep=4 / ip_ratio=1.40 / pb_ratio=1.30 / aq=3:0.700 {, r( ~& ^- L2 Z5 j  X. I% S
  25. Language                                 : English% S( c0 P* o. X3 f7 `, o
  26. Default                                  : Yes8 O6 h* T1 z+ T  R+ N1 ^9 H
  27. Forced                                   : No
    , T* T7 m( N, W. d
  28. Color range                              : Limited
    7 }- j8 P/ y4 t# g9 q* f
  29. Matrix coefficients                      : BT.709" @0 s& Z4 p. ~& n

  30. 3 H9 j" ~# `, G& o1 k
  31. Audio; ]6 `6 F/ n2 Y- x; ~' M/ H
  32. ID                                       : 2
    / V# v5 q: c: q5 \) m
  33. Format                                   : FLAC- l" H% X1 c6 @
  34. Format/Info                              : Free Lossless Audio Codec% a  a7 ^  O& y( `7 ^# ~4 Y' W4 K
  35. Codec ID                                 : A_FLAC9 \) E+ H% _; V$ p) W: T( [( _, E
  36. Duration                                 : 1 h 29 min
    # z. C0 i8 B' n: x$ p$ E
  37. Bit rate mode                            : Variable2 ^, `% G. L' X0 k; H
  38. Bit rate                                 : 1 560 kb/s
    / f; [- c8 @0 V  }
  39. Channel(s)                               : 2 channels
    2 d9 N3 D' w0 D" ^+ {
  40. Channel layout                           : L R% {( }- t' t0 i" U
  41. Sampling rate                            : 48.0 kHz
    3 a+ G! s3 g5 y# j
  42. Frame rate                               : 11.719 FPS (4096 SPF)
    + E1 k8 Q9 g% h9 e' ^7 R1 X
  43. Bit depth                                : 24 bits
    : j5 ~  k1 R& X  B7 ~
  44. Compression mode                         : Lossless
    . t! |. o% \- b9 X8 k
  45. Stream size                              : 995 MiB (16%)
    * b$ J8 I, v. t+ z1 y& G3 F
  46. Title                                    : English
    : F& k4 u  |; Z8 X
  47. Writing library                          : libFLAC 1.2.1 (UTC 2007-09-17)& @$ b6 n( ^0 c: u9 p# `3 Q
  48. Language                                 : English
    4 P2 O4 l! f5 F* [9 O
  49. Default                                  : Yes
    , V! ?  D! y6 o8 `
  50. Forced                                   : No
    5 k! z. y1 W0 u7 N$ m
  51. - R0 k5 j" q. x- B
  52. Text
    7 D4 V; o3 g# [+ Q! d( }9 t
  53. ID                                       : 3
    & q2 u8 U. n4 D5 W6 }% ~, ^2 M7 s
  54. Format                                   : PGS
    8 u& [3 T& R9 m
  55. Muxing mode                              : zlib
    8 D' e2 J: h" _' U2 U
  56. Codec ID                                 : S_HDMV/PGS
    ! i  }6 e% A6 `# L1 i- ?1 G4 D
  57. Codec ID/Info                            : Picture based subtitle format used on BDs/HD-DVDs7 a. {* f: u5 Y# D$ c$ x
  58. Duration                                 : 1 h 26 min
    . |$ L0 V* ^3 a* c2 C% M5 [7 g
  59. Bit rate                                 : 22.6 kb/s
    , ?+ Q. B' k$ ?* b/ e2 B
  60. Count of elements                        : 3064  C, t4 P; }$ j# Q8 A9 M. h
  61. Stream size                              : 13.9 MiB (0%)- y3 @" o6 ~0 g
  62. Language                                 : English
    / t) \* w9 c& C( `  k# a. f8 r
  63. Default                                  : No+ S. i! T1 v$ P( X  u& |8 c( L5 S. V
  64. Forced                                   : No. F" e7 F8 O" f$ ?( ~8 Q+ q
  65. / T4 t- A+ Y2 x& b9 }
  66. Menu
    1 z/ G' f1 ~- ]0 r: i
  67. 00:00:00.000                             : en:Chapter 01
    ! N6 v' C- f7 I/ P
  68. 00:08:14.828                             : en:Chapter 02
      s; i9 Y8 b" X
  69. 00:18:48.169                             : en:Chapter 03) I7 x7 e& I3 H8 b/ r
  70. 00:27:46.915                             : en:Chapter 040 T  o3 [8 U8 E! ~  W6 C3 `
  71. 00:36:43.201                             : en:Chapter 05
    $ y& Z* n' {+ t: G; Q
  72. 00:45:30.645                             : en:Chapter 06* _! X6 W/ \8 s- n1 L
  73. 00:54:56.043                             : en:Chapter 07
    % ^) j7 F' n$ o& [
  74. 01:02:08.308                             : en:Chapter 08, P+ |) g4 b& N" q- r5 m; i+ ?
  75. 01:10:04.200                             : en:Chapter 09( b: [9 Q; a) b$ D1 ]6 e
  76. 01:18:44.094                             : en:Chapter 10
    + H$ _- J5 _$ Y. ~) K/ V
  77. 01:26:04.743                             : en:Chapter 11
复制代码
# a( C* l. ^  _2 l; i
欧米茄综合症 Omega.Syndrome.1986.720p.BluRay.x264-YOL0W 6.20GB-2.png
0 N6 C9 G3 Z/ V! Q4 ^
" D0 Q* ]- V9 f: Q$ s/ V6 Y# ?
) C4 d3 A; i7 X0 S' C9 v
- R5 Z& s' Y4 M! j  b' M* i6 R* c: z$ |$ F+ d5 E9 j- D# o! s& @
# M- @8 J0 P" K, B9 i
1 F0 O. y! k- i! w& o8 i# x5 {& g
回复

使用道具 举报

 成长值: 1290

级别:尊贵的会员

注册时间
2020-3-1
最后登录
2020-5-28
听众
2
收听
0
主题
0
蓝光币
331 枚
贡献
0 点
发表于 4 天前 | 显示全部楼层
楼主发贴辛苦了,谢谢楼主分享!我觉得中国高清电影网是注册对了!
回复

使用道具 举报

懒得打字嘛,点击右侧快捷回复 【右侧内容,后台自定义】
您需要登录后才可以回帖 登录 | 立即注册

本版积分规则

Archiver|手机版|小黑屋| 中国高清网 ( ICP备17007870号-2 ) |网站地图 

GMT+8, 2020-5-28 20:23 , Processed in 0.156305 second(s), 39 queries .

Powered by HDchina X3.4

Copyright 2017-2019©HDchina.All right reserved

返回顶部 联系我们