查看: 30|回复: 1

[剧情片] 孤军奋战/义勇擒凶 Stand.Alone.1985.720p.BluRay.x264-YOL0W 5.87GB

[复制链接]

 成长值: 5460

级别:资源管理组

注册时间
2017-10-20
最后登录
2020-5-28
听众
1
收听
0
主题
96235
蓝光币
152168 枚
贡献
20613 点
发表于 6 天前 | 显示全部楼层 |阅读模式
同仇敌忾/义勇擒凶 Stand.Alone.1985.720p.BluRay.x264-YOL0W 5.87GB-1.png
7 d0 L! f8 F# o8 e, R8 F/ [8 M% u6 D- u% e! ~3 v/ D
译  名 同仇敌忾 / 义勇擒凶
+ @% x' p/ ~- y1 U  g# {& T& L片  名 Stand Alone
  d+ b/ Q0 N" t2 @* Y7 `% `年  代 1985# f" l8 q  _, _  ?  y! G( H
产  地 美国
& [! e+ \- @' L* l+ ^9 |% z类  别 剧情 / 行动
" M: h9 ~% X/ l) J. F# y0 F语  言 英语
( [  ?# s: @! Q0 R- j" U$ v& V& v上映日期 1985* I7 Z  h6 F/ r+ [9 N
IMDb评分  5.3/10 from 187 users
- A, f; x5 Q, |IMDb链接  https://www.imdb.com/title/tt00900627 d0 N- j* |+ b
豆瓣评分 0/10 from 0 users
% g) n* b! ]4 ~! v0 m2 t+ [豆瓣链接 https://movie.douban.com/subject/5048520/9 X2 k- r' J$ c. t* F2 Q0 k7 I2 T4 }/ B
片  长 94 分钟  H6 Z% }3 Q6 T0 }
导  演 Alan Beattie
2 ^- b4 {) u1 k1 @- K编  剧 Roy Carlson. z3 j6 |$ I4 S* `
主  演 查尔斯·德恩 Charles Durning+ T+ I9 G( p9 S: ]4 X+ W6 }5 @9 \
       帕姆·格里尔 Pam Grier0 s& }8 ]6 E* q) s5 H0 n. U% o' W
       詹姆斯·基彻 James Keach0 b, v& f( M' v0 l; b; `0 n

  t( x" b) |: h9 Y6 ~. N4 A1 Q9 t" A! A; d/ L& E
简  介  7 Q- D8 d! ~4 R" M$ O6 I. m) w5 j

. X" f( x; e5 {0 Y0 t" l  couple things about this film.  First of all, this is a perfect example of box art misrepresentation.
/ V8 Q6 a- A- _+ g( l/ V9 Y  Notice our hero on the front cover.  Anyone at all familiar with Charles Durning knows that the0 L& j$ e8 U  A" M4 Q, @
  guy on the cover bears only a vague resemblance at best.  Perhaps in his youth Durning may've/ }/ ^3 |8 {- A  w& o
  had a build like that.  Certainly not at the time this film was made.  Not only has the actor got
, P, \9 u5 J! y5 g5 L% j: ?3 q  a good hundred pounds on the artist's rendition, he's got twenty years on him too.  Durning
. f4 k1 ?' T, Q# ~7 b9 K5 z  was sixty two when he made this film.  Even at forty two, he wasn't in that kind of shape.
6 K% ~, x5 g1 u( s5 K! u5 Q- I! ?6 P  The real crime here is that Durning is perfectly suited for the role he's playing.  This isn't
5 K; N* `: i, J- c) x  just some guy who's had enough and turned vigilante.  Stand Alone is the story of a WWII
6 H# X5 L2 ]: |5 P# A& }6 {6 L- V  veteran who is in the twilight of his life and finds himself having to decide whether to
! M8 j9 [1 e$ @9 M4 g) a' A- Y) p  live in relative safety as a coward or to fight the way he would have as a young man.  So you see,7 P2 g& u0 u% W8 h/ b+ u
  it's actually a good thing that Durning is old and out of shape because that's exactly how
2 g: w+ n5 `, ^8 w' `  the character would be in real life.  Durning is perfectly believable in the role and makes. ~2 F, ]3 M7 z: Y1 @( p1 k' H5 j, u
  something special out of what would otherwise have been just another Death Wish knockoff.7 U! d6 {$ @) p- r6 ^
  Secondly, for those not familiar with  the distributor who released the VHS
0 X: M4 y% C, ^, [  from which this was ripped, Starmaker specialized in EP  productions.  Meaning that this( J$ n. J0 {! `) d& f
  is far from the best source material to work with.  Not the worst mind you but it does' k7 C0 ]$ M- ?1 ?% M, I7 Y
  leave much to be desired.  Anyone with a better quality print, I'd be happy to see it./ F9 h, T2 ^" E1 U& g1 d7 T
  1. Video
    . C* h5 T% m$ N( a  R- j* R; H7 s
  2. ID                                       : 1
    % F9 n9 @, U4 j6 B4 N5 K+ y
  3. Format                                   : AVC
    3 m/ z8 c0 f, K0 o& N* s. u  s& ?
  4. Format/Info                              : Advanced Video Codec
    / o, Z. y# z. l! E( x& e( J
  5. Format profile                           : High@L4' O* O$ I$ b/ p" n. w
  6. Format settings                          : CABAC / 8 Ref Frames3 \7 W0 A, l0 t" W$ X
  7. Format settings, CABAC                   : Yes
    ( m+ y% S+ v* K5 ^  D( m7 T
  8. Format settings, Reference frames        : 8 frames% ]$ y0 O$ ]  l8 [0 ~
  9. Codec ID                                 : V_MPEG4/ISO/AVC
    * ?* ]% A' i3 |7 Y2 d
  10. Duration                                 : 1 h 33 min6 g- B* |$ i, [% z. E  m
  11. Bit rate                                 : 8 299 kb/s9 G( ^% H9 p6 M& h1 }/ b
  12. Width                                    : 1 280 pixels' l* J5 i/ W; n1 E
  13. Height                                   : 720 pixels1 |  `  s2 }- U  g& ?( b
  14. Display aspect ratio                     : 16:99 Z5 f- [* n2 i, q- B* ]
  15. Frame rate mode                          : Constant$ C( n; f( L. w, `
  16. Frame rate                               : 23.976 (24000/1001/189150) FPS- O( j0 u$ b, B
  17. Color space                              : YUV
    / ~0 p. S9 T! U
  18. Chroma subsampling                       : 4:2:0
    ) ^7 x  k( k& \4 d# J% c
  19. Bit depth                                : 8 bits
    0 w% {4 w0 O: \* _/ f2 |# o
  20. Scan type                                : Progressive; f6 C  F' ]5 m
  21. Bits/(Pixel*Frame)                       : 0.3765 V+ F% y1 a  s; m( B- b
  22. Stream size                              : 5.41 GiB (92%)
    5 E/ S+ y/ e5 Y4 U
  23. Writing library                          : x264 core 160 r3000 33f9e14
    & D5 h2 G6 ^% x. Y
  24. Encoding settings                        : cabac=1 / ref=8 / deblock=1:-3:-3 / analyse=0x3:0x133 / me=umh / subme=9 / psy=1 / psy_rd=1.00:0.00 / mixed_ref=1 / me_range=32 / chroma_me=1 / trellis=2 / 8x8dct=1 / cqm=0 / deadzone=21,11 / fast_pskip=0 / chroma_qp_offset=-2 / threads=22 / lookahead_threads=3 / sliced_threads=0 / nr=0 / decimate=0 / interlaced=0 / bluray_compat=0 / constrained_intra=0 / bframes=9 / b_pyramid=2 / b_adapt=2 / b_bias=0 / direct=3 / weightb=1 / open_gop=0 / weightp=2 / keyint=250 / keyint_min=23 / scenecut=40 / intra_refresh=0 / rc=crf / mbtree=0 / crf=16.8 / qcomp=0.60 / qpmin=0 / qpmax=69 / qpstep=4 / ip_ratio=1.40 / pb_ratio=1.30 / aq=3:0.70
    1 F* N6 V1 J5 N% B3 o0 Y+ F
  25. Default                                  : Yes* g) Q% S  l- v2 l$ ~: `
  26. Forced                                   : No0 ^* w( c$ d% ?% B. P* I& ~, ]  x. p
  27. Color range                              : Limited6 N4 ]" x- R3 _  s
  28. Matrix coefficients                      : BT.709
    + _) G; K! B( }1 y: \
  29. ) F4 u& V& j( m6 c. Q. e0 N0 Z7 o
  30. Audio0 z$ m# t- v* }! w  ~. J
  31. ID                                       : 2
    ' p* c, h) ^. F5 ~1 Z* B
  32. Format                                   : FLAC2 G+ K3 R( ]& h/ ?1 J
  33. Format/Info                              : Free Lossless Audio Codec5 d$ f. w: |9 I3 h& w
  34. Codec ID                                 : A_FLAC
    8 D( y3 d0 d+ Y: X" g) B
  35. Duration                                 : 1 h 33 min: t' {# `2 m; ?. F9 w
  36. Bit rate mode                            : Variable- s! i) H. Z1 d: r
  37. Bit rate                                 : 703 kb/s- G8 j7 W/ D! f) D
  38. Channel(s)                               : 2 channels" M$ S, ?3 H. n3 |  O1 A# }
  39. Channel layout                           : L R
    8 \# x7 v  b- h* m
  40. Sampling rate                            : 48.0 kHz
    7 _; t- o6 Z/ a% _- x$ s3 m- {
  41. Frame rate                               : 11.719 FPS (4096 SPF)
    ( n7 k! F! @) I( J9 y2 ^; Z/ R
  42. Bit depth                                : 24 bits
    2 y7 ]: O7 E, D& U1 y& v9 q& T
  43. Compression mode                         : Lossless' o. ?( e3 s& g2 A
  44. Stream size                              : 469 MiB (8%)
    9 j( f; z# I7 H( }# I7 z
  45. Title                                    : English
    8 n! \7 G8 \3 E+ i! E
  46. Writing library                          : libFLAC 1.3.3 (UTC 2019-08-04)
    2 K7 F3 @1 A, H8 j
  47. Language                                 : English
    - r7 O; h0 F$ _! ^5 j! k2 M  M
  48. Default                                  : Yes7 c+ S$ V! ?- V" h# K; K3 E
  49. Forced                                   : No
    # u( m  n" F$ ^3 ^1 n

  50. / S/ Q. u! H# J, H/ }, z7 x- p5 D
  51. Text: p# q" ~$ o& j' d3 e
  52. ID                                       : 3
    1 Z; X3 e" W3 `' F% D
  53. Format                                   : PGS6 p" \+ i7 f# o' y
  54. Muxing mode                              : zlib
    3 ?  ^: R$ a7 Q4 d5 e! M
  55. Codec ID                                 : S_HDMV/PGS
    / h  Q) k' S9 ?/ L
  56. Codec ID/Info                            : Picture based subtitle format used on BDs/HD-DVDs
    5 }% T0 r; o' D* c7 A. g' q7 v
  57. Duration                                 : 1 h 32 min* K5 c# {( Z& ~) {3 |
  58. Bit rate                                 : 22.1 kb/s. B3 _) d  f; _
  59. Count of elements                        : 3227
    : e" y& b0 N1 z* I7 v3 a: e: ~
  60. Stream size                              : 14.6 MiB (0%)3 R9 J5 x4 l) u9 o& _. |/ |
  61. Title                                    : English SDH
    ! q; C3 Q" j, P7 H2 _% r
  62. Language                                 : English
    3 @6 G2 M9 d' n3 s3 W
  63. Default                                  : No
    8 ?: o" _. |+ q
  64. Forced                                   : No& ^8 e7 j: e; I& y9 s, d, `2 |
  65. " V, X; r5 `$ l# Z9 r
  66. Menu
    5 C; H4 X/ a' H( i' x" {( a
  67. 00:00:00.000                             : en:Chapter 01( o: u( b$ n$ ^  p; [5 q6 R
  68. 00:07:06.509                             : en:Chapter 02
    $ O( x: C+ |5 ^2 i1 _+ d
  69. 00:16:55.389                             : en:Chapter 03
    & X2 ~) \( I# h! c* r
  70. 00:22:57.042                             : en:Chapter 042 l6 f; p' v$ Q/ W
  71. 00:31:07.866                             : en:Chapter 05
    . w7 ^5 n9 p, D0 V
  72. 00:42:32.383                             : en:Chapter 06
    # F2 y( e( O! S) B( y& q" \
  73. 00:51:52.526                             : en:Chapter 072 S6 J  @, `- q
  74. 01:02:02.260                             : en:Chapter 08$ ^# n+ B# w4 f7 e6 B
  75. 01:10:04.242                             : en:Chapter 09
    / R$ R$ j) L6 W# u" g$ |' v
  76. 01:15:02.039                             : en:Chapter 10  d% p& n6 Q9 |0 S$ j9 ?
  77. 01:22:47.004                             : en:Chapter 116 b& z1 q0 v8 ^
  78. 01:30:39.643                             : en:Chapter 12
复制代码
# @8 n# a3 @- L7 m* m6 `2 i' o
同仇敌忾/义勇擒凶 Stand.Alone.1985.720p.BluRay.x264-YOL0W 5.87GB-2.png
2 r4 f* F% U" H: q+ _9 w! ?  }" w% S( X( M" C- `

, v9 Y3 X1 V2 L9 `5 B8 ?
6 A# C% d. x. F
9 |" P) @/ o2 M0 [8 ?& `1 M4 {  H# j% n) p% j. N0 k
/ F- u  Q  R3 }: F" s1 \; P
回复

使用道具 举报

 成长值: 1290

级别:尊贵的会员

注册时间
2020-3-1
最后登录
2020-5-28
听众
2
收听
0
主题
0
蓝光币
331 枚
贡献
0 点
发表于 4 天前 | 显示全部楼层
楼主发贴辛苦了,谢谢楼主分享!我觉得中国高清电影网是注册对了!
回复

使用道具 举报

懒得打字嘛,点击右侧快捷回复 【右侧内容,后台自定义】
您需要登录后才可以回帖 登录 | 立即注册

本版积分规则

Archiver|手机版|小黑屋| 中国高清网 ( ICP备17007870号-2 ) |网站地图 

GMT+8, 2020-5-28 20:24 , Processed in 0.165494 second(s), 39 queries .

Powered by HDchina X3.4

Copyright 2017-2019©HDchina.All right reserved

返回顶部 联系我们