查看: 121|回复: 0

[REMUX.HEVC] 霹雳男儿/雷声四起 Days.of.Thunder.1990.2160p.BluRay.REMUX.HEVC.DTS-HD.MA.TrueHD.5.1-FGT 60.81GB

[复制链接]

 成长值: 5460

级别:资源管理组

注册时间
2017-10-20
最后登录
2020-5-28
听众
1
收听
0
主题
96229
蓝光币
151990 枚
贡献
20607 点
发表于 7 天前 | 显示全部楼层 |阅读模式
轰隆男儿/雷声四起 Days.of.Thunder.1990.2160p.BluRay.REMUX.HEVC.DTS-HD.MA.TrueHD.5.1-FGT 60.81GB-1.png

译  名 轰隆男儿 / 雷声四起 / 雷霆壮志 / 雷鸣的日子
片  名 Days of Thunder
年  代 1990
产  地 美国
类  别 剧情 / 行动 / 恋爱 / 活动
语  言 英语
上映日期 1990-06-27
IMDb评分  6.0/10 from 75445 users
IMDb链接  https://www.imdb.com/title/tt0099371
豆瓣评分 6.8/10 from 1769 users
豆瓣链接 https://movie.douban.com/subject/1292746/
片  长 107 分钟
导  演 Tony Scott
编  剧 Robert Towne
主  演 Tom Cruise
       Nicole Kidman
       Robert Duvall


标  签 TomCruise | 美国 | NicoleKidman | 励志 | 汤姆·克鲁斯 | 恋爱 | 美国电影 | 1990

简  介  

  赛车版的《壮志凌云》
  杰克是一位职业赛车手,对成功和赛车冠军布满了渴望,在走出失利的阴影以后,他在女友的激励及赛车设想高手哈里的帮助下,决议再次应战对手联手向雷特那赛车冠军倡议了冲击。经过惊险万分角逐,最初终究赢得了冠军!

获奖情况  

  第63届奥斯卡金像奖(1991)
  最好声响(提名) Donald O. Mitchell / 凯文·奥康奈尔 / 里克·克莱恩 / Charles M. Wilborn
  1. Video #1
  2. ID                                       : 1
  3. ID in the original source medium         : 4113 (0x1011)
  4. Format                                   : HEVC
  5. Format/Info                              : High Efficiency Video Coding
  6. Format profile                           : Main High@L4@High
  7. HDR format                               : SMPTE ST 2086, HDR10 compatible
  8. Codec ID                                 : V_MPEGH/ISO/HEVC
  9. Duration                                 : 1 h 47 min
  10. Bit rate                                 : 62.9 Mb/s
  11. Width                                    : 3 840 pixels
  12. Height                                   : 2 160 pixels
  13. Display aspect ratio                     : 16:9
  14. Frame rate mode                          : Constant
  15. Frame rate                               : 23.976 (24000/1001/189150) FPS
  16. Color space                              : YUV
  17. Chroma subsampling                       : 4:2:0 (Type 2)
  18. Bit depth                                : 10 bits
  19. Bits/(Pixel*Frame)                       : 0.316
  20. Stream size                              : 47.1 GiB (77%)
  21. Title                                    : Days.of.Thunder.1990.2160p.BluRay.REMUX.HEVC.DTS-HD.MA.TrueHD.5.1-FGT
  22. Language                                 : English
  23. Default                                  : Yes
  24. Forced                                   : No
  25. Color range                              : Limited
  26. Color primaries                          : BT.2020
  27. Transfer characteristics                 : PQ
  28. Matrix coefficients                      : BT.2020 non-constant
  29. Mastering display color primaries        : Display P3
  30. Mastering display luminance              : min: 0.0001 cd/m2, max: 1000 cd/m2
  31. Original source medium                   : Blu-ray

  32. Video #2
  33. ID                                       : 2
  34. ID in the original source medium         : 4117 (0x1015)
  35. Format                                   : HEVC
  36. Format/Info                              : High Efficiency Video Coding
  37. Format profile                           : Main High@L4@High
  38. HDR format                               : SMPTE ST 2086, HDR10 compatible
  39. Codec ID                                 : V_MPEGH/ISO/HEVC
  40. Duration                                 : 1 h 47 min
  41. Bit rate                                 : 6 359 kb/s
  42. Width                                    : 1 920 pixels
  43. Height                                   : 1 080 pixels
  44. Display aspect ratio                     : 16:9
  45. Frame rate mode                          : Constant
  46. Frame rate                               : 23.976 (24000/1001/189150) FPS
  47. Color space                              : YUV
  48. Chroma subsampling                       : 4:2:0 (Type 2)
  49. Bit depth                                : 10 bits
  50. Bits/(Pixel*Frame)                       : 0.128
  51. Stream size                              : 4.77 GiB (8%)
  52. Title                                    : Days.of.Thunder.1990.2160p.BluRay.REMUX.HEVC.DTS-HD.MA.TrueHD.5.1-FGT
  53. Language                                 : English
  54. Default                                  : No
  55. Forced                                   : No
  56. Color range                              : Limited
  57. Color primaries                          : BT.2020
  58. Transfer characteristics                 : PQ
  59. Matrix coefficients                      : BT.2020 non-constant
  60. Mastering display color primaries        : Display P3
  61. Mastering display luminance              : min: 0.0001 cd/m2, max: 1000 cd/m2
  62. Original source medium                   : Blu-ray

  63. Audio #1
  64. ID                                       : 3
  65. ID in the original source medium         : 4352 (0x1100)
  66. Format                                   : MLP FBA
  67. Format/Info                              : Meridian Lossless Packing FBA
  68. Commercial name                          : Dolby TrueHD
  69. Codec ID                                 : A_TRUEHD
  70. Duration                                 : 1 h 47 min
  71. Bit rate mode                            : Variable
  72. Bit rate                                 : 3 334 kb/s
  73. Maximum bit rate                         : 4 758 kb/s
  74. Channel(s)                               : 6 channels
  75. Channel layout                           : L R C LFE Ls Rs
  76. Sampling rate                            : 48.0 kHz
  77. Frame rate                               : 1 200.000 FPS (40 SPF)
  78. Compression mode                         : Lossless
  79. Stream size                              : 2.50 GiB (4%)
  80. Title                                    : Days.of.Thunder.1990.2160p.BluRay.REMUX.HEVC.DTS-HD.MA.TrueHD.5.1-FGT
  81. Language                                 : English
  82. Default                                  : Yes
  83. Forced                                   : No
  84. Original source medium                   : Blu-ray

  85. Audio #2
  86. ID                                       : 4
  87. Format                                   : DTS XLL
  88. Format/Info                              : Digital Theater Systems
  89. Commercial name                          : DTS-HD Master Audio
  90. Codec ID                                 : A_DTS
  91. Duration                                 : 1 h 47 min
  92. Bit rate mode                            : Variable
  93. Bit rate                                 : 3 779 kb/s
  94. Channel(s)                               : 6 channels
  95. Channel layout                           : C L R Ls Rs LFE
  96. Sampling rate                            : 48.0 kHz
  97. Frame rate                               : 93.750 FPS (512 SPF)
  98. Bit depth                                : 24 bits
  99. Compression mode                         : Lossless
  100. Stream size                              : 2.83 GiB (5%)
  101. Title                                    : Days.of.Thunder.1990.2160p.BluRay.REMUX.HEVC.DTS-HD.MA.TrueHD.5.1-FGT
  102. Language                                 : English
  103. Default                                  : No
  104. Forced                                   : No

  105. Audio #3
  106. ID                                       : 5
  107. ID in the original source medium         : 4352 (0x1100)
  108. Format                                   : AC-3
  109. Format/Info                              : Audio Coding 3
  110. Commercial name                          : Dolby Digital
  111. Codec ID                                 : A_AC3
  112. Duration                                 : 1 h 47 min
  113. Bit rate mode                            : Constant
  114. Bit rate                                 : 640 kb/s
  115. Channel(s)                               : 6 channels
  116. Channel layout                           : L R C LFE Ls Rs
  117. Sampling rate                            : 48.0 kHz
  118. Frame rate                               : 31.250 FPS (1536 SPF)
  119. Bit depth                                : 16 bits
  120. Compression mode                         : Lossy
  121. Stream size                              : 491 MiB (1%)
  122. Title                                    : Days.of.Thunder.1990.2160p.BluRay.REMUX.HEVC.DTS-HD.MA.TrueHD.5.1-FGT
  123. Language                                 : English
  124. Service kind                             : Complete Main
  125. Default                                  : No
  126. Forced                                   : No
  127. Original source medium                   : Blu-ray

  128. Audio #4
  129. ID                                       : 6
  130. ID in the original source medium         : 4353 (0x1101)
  131. Format                                   : AC-3
  132. Format/Info                              : Audio Coding 3
  133. Commercial name                          : Dolby Digital
  134. Codec ID                                 : A_AC3
  135. Duration                                 : 1 h 47 min
  136. Bit rate mode                            : Constant
  137. Bit rate                                 : 640 kb/s
  138. Channel(s)                               : 6 channels
  139. Channel layout                           : L R C LFE Ls Rs
  140. Sampling rate                            : 48.0 kHz
  141. Frame rate                               : 31.250 FPS (1536 SPF)
  142. Bit depth                                : 16 bits
  143. Compression mode                         : Lossy
  144. Stream size                              : 491 MiB (1%)
  145. Title                                    : Days.of.Thunder.1990.2160p.BluRay.REMUX.HEVC.DTS-HD.MA.TrueHD.5.1-FGT
  146. Language                                 : German
  147. Service kind                             : Complete Main
  148. Default                                  : No
  149. Forced                                   : No
  150. Original source medium                   : Blu-ray

  151. Audio #5
  152. ID                                       : 7
  153. ID in the original source medium         : 4354 (0x1102)
  154. Format                                   : AC-3
  155. Format/Info                              : Audio Coding 3
  156. Commercial name                          : Dolby Digital
  157. Codec ID                                 : A_AC3
  158. Duration                                 : 1 h 47 min
  159. Bit rate mode                            : Constant
  160. Bit rate                                 : 640 kb/s
  161. Channel(s)                               : 6 channels
  162. Channel layout                           : L R C LFE Ls Rs
  163. Sampling rate                            : 48.0 kHz
  164. Frame rate                               : 31.250 FPS (1536 SPF)
  165. Bit depth                                : 16 bits
  166. Compression mode                         : Lossy
  167. Stream size                              : 491 MiB (1%)
  168. Title                                    : Days.of.Thunder.1990.2160p.BluRay.REMUX.HEVC.DTS-HD.MA.TrueHD.5.1-FGT
  169. Language                                 : Spanish
  170. Service kind                             : Complete Main
  171. Default                                  : No
  172. Forced                                   : No
  173. Original source medium                   : Blu-ray

  174. Audio #6
  175. ID                                       : 8
  176. ID in the original source medium         : 4355 (0x1103)
  177. Format                                   : AC-3
  178. Format/Info                              : Audio Coding 3
  179. Commercial name                          : Dolby Digital
  180. Codec ID                                 : A_AC3
  181. Duration                                 : 1 h 47 min
  182. Bit rate mode                            : Constant
  183. Bit rate                                 : 640 kb/s
  184. Channel(s)                               : 6 channels
  185. Channel layout                           : L R C LFE Ls Rs
  186. Sampling rate                            : 48.0 kHz
  187. Frame rate                               : 31.250 FPS (1536 SPF)
  188. Bit depth                                : 16 bits
  189. Compression mode                         : Lossy
  190. Stream size                              : 491 MiB (1%)
  191. Title                                    : Days.of.Thunder.1990.2160p.BluRay.REMUX.HEVC.DTS-HD.MA.TrueHD.5.1-FGT
  192. Language                                 : Spanish
  193. Service kind                             : Complete Main
  194. Default                                  : No
  195. Forced                                   : No
  196. Original source medium                   : Blu-ray

  197. Audio #7
  198. ID                                       : 9
  199. ID in the original source medium         : 4356 (0x1104)
  200. Format                                   : AC-3
  201. Format/Info                              : Audio Coding 3
  202. Commercial name                          : Dolby Digital
  203. Codec ID                                 : A_AC3
  204. Duration                                 : 1 h 47 min
  205. Bit rate mode                            : Constant
  206. Bit rate                                 : 640 kb/s
  207. Channel(s)                               : 6 channels
  208. Channel layout                           : L R C LFE Ls Rs
  209. Sampling rate                            : 48.0 kHz
  210. Frame rate                               : 31.250 FPS (1536 SPF)
  211. Bit depth                                : 16 bits
  212. Compression mode                         : Lossy
  213. Stream size                              : 491 MiB (1%)
  214. Title                                    : Days.of.Thunder.1990.2160p.BluRay.REMUX.HEVC.DTS-HD.MA.TrueHD.5.1-FGT
  215. Language                                 : French
  216. Service kind                             : Complete Main
  217. Default                                  : No
  218. Forced                                   : No
  219. Original source medium                   : Blu-ray

  220. Audio #8
  221. ID                                       : 10
  222. ID in the original source medium         : 4357 (0x1105)
  223. Format                                   : AC-3
  224. Format/Info                              : Audio Coding 3
  225. Commercial name                          : Dolby Digital
  226. Codec ID                                 : A_AC3
  227. Duration                                 : 1 h 47 min
  228. Bit rate mode                            : Constant
  229. Bit rate                                 : 640 kb/s
  230. Channel(s)                               : 6 channels
  231. Channel layout                           : L R C LFE Ls Rs
  232. Sampling rate                            : 48.0 kHz
  233. Frame rate                               : 31.250 FPS (1536 SPF)
  234. Bit depth                                : 16 bits
  235. Compression mode                         : Lossy
  236. Stream size                              : 491 MiB (1%)
  237. Title                                    : Days.of.Thunder.1990.2160p.BluRay.REMUX.HEVC.DTS-HD.MA.TrueHD.5.1-FGT
  238. Language                                 : Italian
  239. Service kind                             : Complete Main
  240. Default                                  : No
  241. Forced                                   : No
  242. Original source medium                   : Blu-ray

  243. Audio #9
  244. ID                                       : 11
  245. ID in the original source medium         : 4358 (0x1106)
  246. Format                                   : AC-3
  247. Format/Info                              : Audio Coding 3
  248. Commercial name                          : Dolby Digital
  249. Codec ID                                 : A_AC3
  250. Duration                                 : 1 h 47 min
  251. Bit rate mode                            : Constant
  252. Bit rate                                 : 224 kb/s
  253. Channel(s)                               : 2 channels
  254. Channel layout                           : L R
  255. Sampling rate                            : 48.0 kHz
  256. Frame rate                               : 31.250 FPS (1536 SPF)
  257. Bit depth                                : 16 bits
  258. Compression mode                         : Lossy
  259. Stream size                              : 172 MiB (0%)
  260. Title                                    : Days.of.Thunder.1990.2160p.BluRay.REMUX.HEVC.DTS-HD.MA.TrueHD.5.1-FGT
  261. Language                                 : Japanese
  262. Service kind                             : Complete Main
  263. Default                                  : No
  264. Forced                                   : No
  265. Original source medium                   : Blu-ray

  266. Audio #10
  267. ID                                       : 12
  268. ID in the original source medium         : 4359 (0x1107)
  269. Format                                   : AC-3
  270. Format/Info                              : Audio Coding 3
  271. Commercial name                          : Dolby Digital
  272. Codec ID                                 : A_AC3
  273. Duration                                 : 1 h 47 min
  274. Bit rate mode                            : Constant
  275. Bit rate                                 : 224 kb/s
  276. Channel(s)                               : 2 channels
  277. Channel layout                           : L R
  278. Sampling rate                            : 48.0 kHz
  279. Frame rate                               : 31.250 FPS (1536 SPF)
  280. Bit depth                                : 16 bits
  281. Compression mode                         : Lossy
  282. Stream size                              : 172 MiB (0%)
  283. Title                                    : Days.of.Thunder.1990.2160p.BluRay.REMUX.HEVC.DTS-HD.MA.TrueHD.5.1-FGT
  284. Language                                 : Portuguese
  285. Service kind                             : Complete Main
  286. Default                                  : No
  287. Forced                                   : No
  288. Original source medium                   : Blu-ray

  289. Audio #11
  290. ID                                       : 13
  291. ID in the original source medium         : 4360 (0x1108)
  292. Format                                   : AC-3
  293. Format/Info                              : Audio Coding 3
  294. Commercial name                          : Dolby Digital
  295. Codec ID                                 : A_AC3
  296. Duration                                 : 1 h 47 min
  297. Bit rate mode                            : Constant
  298. Bit rate                                 : 224 kb/s
  299. Channel(s)                               : 2 channels
  300. Channel layout                           : L R
  301. Sampling rate                            : 48.0 kHz
  302. Frame rate                               : 31.250 FPS (1536 SPF)
  303. Bit depth                                : 16 bits
  304. Compression mode                         : Lossy
  305. Stream size                              : 172 MiB (0%)
  306. Title                                    : Days.of.Thunder.1990.2160p.BluRay.REMUX.HEVC.DTS-HD.MA.TrueHD.5.1-FGT
  307. Language                                 : English
  308. Service kind                             : Complete Main
  309. Default                                  : No
  310. Forced                                   : No
  311. Original source medium                   : Blu-ray

  312. Text #1
  313. ID                                       : 14
  314. Format                                   : UTF-8
  315. Codec ID                                 : S_TEXT/UTF8
  316. Codec ID/Info                            : UTF-8 Plain Text
  317. Duration                                 : 1 h 40 min
  318. Bit rate                                 : 64 b/s
  319. Count of elements                        : 1217
  320. Stream size                              : 47.9 KiB (0%)
  321. Title                                    : English-SRT
  322. Language                                 : English
  323. Default                                  : Yes
  324. Forced                                   : No

  325. Text #2
  326. ID                                       : 15
  327. ID in the original source medium         : 4768 (0x12A0)
  328. Format                                   : PGS
  329. Muxing mode                              : zlib
  330. Codec ID                                 : S_HDMV/PGS
  331. Codec ID/Info                            : Picture based subtitle format used on BDs/HD-DVDs
  332. Duration                                 : 1 h 40 min
  333. Bit rate                                 : 40.2 kb/s
  334. Count of elements                        : 2442
  335. Stream size                              : 29.0 MiB (0%)
  336. Title                                    : English-PGS
  337. Language                                 : English
  338. Default                                  : No
  339. Forced                                   : No
  340. Original source medium                   : Blu-ray

  341. Text #3
  342. ID                                       : 16
  343. ID in the original source medium         : 4769 (0x12A1)
  344. Format                                   : PGS
  345. Muxing mode                              : zlib
  346. Codec ID                                 : S_HDMV/PGS
  347. Codec ID/Info                            : Picture based subtitle format used on BDs/HD-DVDs
  348. Duration                                 : 1 h 41 min
  349. Bit rate                                 : 41.2 kb/s
  350. Count of elements                        : 2494
  351. Stream size                              : 29.8 MiB (0%)
  352. Title                                    : English-SDH-PGS
  353. Language                                 : English
  354. Default                                  : No
  355. Forced                                   : No
  356. Original source medium                   : Blu-ray

  357. Text #4
  358. ID                                       : 17
  359. ID in the original source medium         : 4770 (0x12A2)
  360. Format                                   : PGS
  361. Muxing mode                              : zlib
  362. Codec ID                                 : S_HDMV/PGS
  363. Codec ID/Info                            : Picture based subtitle format used on BDs/HD-DVDs
  364. Duration                                 : 1 h 45 min
  365. Bit rate                                 : 21.1 kb/s
  366. Count of elements                        : 2360
  367. Stream size                              : 15.9 MiB (0%)
  368. Title                                    : Arabic-PGS
  369. Language                                 : Arabic
  370. Default                                  : No
  371. Forced                                   : No
  372. Original source medium                   : Blu-ray

  373. Text #5
  374. ID                                       : 18
  375. ID in the original source medium         : 4771 (0x12A3)
  376. Format                                   : PGS
  377. Muxing mode                              : zlib
  378. Codec ID                                 : S_HDMV/PGS
  379. Codec ID/Info                            : Picture based subtitle format used on BDs/HD-DVDs
  380. Duration                                 : 1 h 45 min
  381. Bit rate                                 : 28.3 kb/s
  382. Count of elements                        : 2408
  383. Stream size                              : 21.3 MiB (0%)
  384. Title                                    : Chinese-PGS
  385. Language                                 : Chinese
  386. Default                                  : No
  387. Forced                                   : No
  388. Original source medium                   : Blu-ray

  389. Text #6
  390. ID                                       : 19
  391. ID in the original source medium         : 4772 (0x12A4)
  392. Format                                   : PGS
  393. Muxing mode                              : zlib
  394. Codec ID                                 : S_HDMV/PGS
  395. Codec ID/Info                            : Picture based subtitle format used on BDs/HD-DVDs
  396. Duration                                 : 1 h 45 min
  397. Bit rate                                 : 35.1 kb/s
  398. Count of elements                        : 2426
  399. Stream size                              : 26.4 MiB (0%)
  400. Title                                    : Danish-PGS
  401. Language                                 : Danish
  402. Default                                  : No
  403. Forced                                   : No
  404. Original source medium                   : Blu-ray

  405. Text #7
  406. ID                                       : 20
  407. ID in the original source medium         : 4773 (0x12A5)
  408. Format                                   : PGS
  409. Muxing mode                              : zlib
  410. Codec ID                                 : S_HDMV/PGS
  411. Codec ID/Info                            : Picture based subtitle format used on BDs/HD-DVDs
  412. Duration                                 : 1 h 45 min
  413. Bit rate                                 : 32.5 kb/s
  414. Count of elements                        : 2378
  415. Stream size                              : 24.4 MiB (0%)
  416. Title                                    : German-PGS
  417. Language                                 : German
  418. Default                                  : No
  419. Forced                                   : No
  420. Original source medium                   : Blu-ray

  421. Text #8
  422. ID                                       : 21
  423. ID in the original source medium         : 4773 (0x12A5)
  424. Format                                   : PGS
  425. Muxing mode                              : zlib
  426. Codec ID                                 : S_HDMV/PGS
  427. Codec ID/Info                            : Picture based subtitle format used on BDs/HD-DVDs
  428. Duration                                 : 55 min 42 s
  429. Bit rate                                 : 49 b/s
  430. Count of elements                        : 4
  431. Stream size                              : 20.1 KiB (0%)
  432. Title                                    : German-FORCED-PGS
  433. Language                                 : German
  434. Default                                  : No
  435. Forced                                   : No
  436. Original source medium                   : Blu-ray

  437. Text #9
  438. ID                                       : 22
  439. ID in the original source medium         : 4774 (0x12A6)
  440. Format                                   : PGS
  441. Muxing mode                              : zlib
  442. Codec ID                                 : S_HDMV/PGS
  443. Codec ID/Info                            : Picture based subtitle format used on BDs/HD-DVDs
  444. Duration                                 : 1 h 45 min
  445. Bit rate                                 : 31.9 kb/s
  446. Count of elements                        : 2586
  447. Stream size                              : 24.0 MiB (0%)
  448. Title                                    : Greek-PGS
  449. Language                                 : Greek
  450. Default                                  : No
  451. Forced                                   : No
  452. Original source medium                   : Blu-ray

  453. Text #10
  454. ID                                       : 23
  455. ID in the original source medium         : 4775 (0x12A7)
  456. Format                                   : PGS
  457. Muxing mode                              : zlib
  458. Codec ID                                 : S_HDMV/PGS
  459. Codec ID/Info                            : Picture based subtitle format used on BDs/HD-DVDs
  460. Duration                                 : 1 h 45 min
  461. Bit rate                                 : 36.2 kb/s
  462. Count of elements                        : 2408
  463. Stream size                              : 27.2 MiB (0%)
  464. Title                                    : Spanish-PGS
  465. Language                                 : Spanish
  466. Default                                  : No
  467. Forced                                   : No
  468. Original source medium                   : Blu-ray

  469. Text #11
  470. ID                                       : 24
  471. ID in the original source medium         : 4775 (0x12A7)
  472. Format                                   : PGS
  473. Muxing mode                              : zlib
  474. Codec ID                                 : S_HDMV/PGS
  475. Codec ID/Info                            : Picture based subtitle format used on BDs/HD-DVDs
  476. Duration                                 : 1 h 43 min
  477. Bit rate                                 : 158 b/s
  478. Count of elements                        : 12
  479. Stream size                              : 121 KiB (0%)
  480. Title                                    : Spanish-PGS
  481. Language                                 : Spanish
  482. Default                                  : No
  483. Forced                                   : No
  484. Original source medium                   : Blu-ray

  485. Text #12
  486. ID                                       : 25
  487. ID in the original source medium         : 4776 (0x12A8)
  488. Format                                   : PGS
  489. Muxing mode                              : zlib
  490. Codec ID                                 : S_HDMV/PGS
  491. Codec ID/Info                            : Picture based subtitle format used on BDs/HD-DVDs
  492. Duration                                 : 1 h 45 min
  493. Bit rate                                 : 25.1 kb/s
  494. Count of elements                        : 2148
  495. Stream size                              : 19.0 MiB (0%)
  496. Title                                    : Spanish-FORCED-PGS
  497. Language                                 : Spanish
  498. Default                                  : No
  499. Forced                                   : No
  500. Original source medium                   : Blu-ray

  501. Text #13
  502. ID                                       : 26
  503. ID in the original source medium         : 4777 (0x12A9)
  504. Format                                   : PGS
  505. Muxing mode                              : zlib
  506. Codec ID                                 : S_HDMV/PGS
  507. Codec ID/Info                            : Picture based subtitle format used on BDs/HD-DVDs
  508. Duration                                 : 1 h 45 min
  509. Bit rate                                 : 29.2 kb/s
  510. Count of elements                        : 2396
  511. Stream size                              : 22.0 MiB (0%)
  512. Title                                    : French-PGS
  513. Language                                 : French
  514. Default                                  : No
  515. Forced                                   : No
  516. Original source medium                   : Blu-ray

  517. Text #14
  518. ID                                       : 27
  519. ID in the original source medium         : 4777 (0x12A9)
  520. Format                                   : PGS
  521. Muxing mode                              : zlib
  522. Codec ID                                 : S_HDMV/PGS
  523. Codec ID/Info                            : Picture based subtitle format used on BDs/HD-DVDs
  524. Duration                                 : 1 h 45 min
  525. Bit rate                                 : 187 b/s
  526. Count of elements                        : 16
  527. Stream size                              : 145 KiB (0%)
  528. Title                                    : French-FORCED-PGS
  529. Language                                 : French
  530. Default                                  : No
  531. Forced                                   : No
  532. Original source medium                   : Blu-ray

  533. Text #15
  534. ID                                       : 28
  535. ID in the original source medium         : 4778 (0x12AA)
  536. Format                                   : PGS
  537. Muxing mode                              : zlib
  538. Codec ID                                 : S_HDMV/PGS
  539. Codec ID/Info                            : Picture based subtitle format used on BDs/HD-DVDs
  540. Duration                                 : 1 h 45 min
  541. Bit rate                                 : 25.4 kb/s
  542. Count of elements                        : 1786
  543. Stream size                              : 19.1 MiB (0%)
  544. Title                                    : Icelandic-PGS
  545. Language                                 : Icelandic
  546. Default                                  : No
  547. Forced                                   : No
  548. Original source medium                   : Blu-ray

  549. Text #16
  550. ID                                       : 29
  551. ID in the original source medium         : 4779 (0x12AB)
  552. Format                                   : PGS
  553. Muxing mode                              : zlib
  554. Codec ID                                 : S_HDMV/PGS
  555. Codec ID/Info                            : Picture based subtitle format used on BDs/HD-DVDs
  556. Duration                                 : 1 h 45 min
  557. Bit rate                                 : 34.8 kb/s
  558. Count of elements                        : 2384
  559. Stream size                              : 26.1 MiB (0%)
  560. Title                                    : Italian-PGS
  561. Language                                 : Italian
  562. Default                                  : No
  563. Forced                                   : No
  564. Original source medium                   : Blu-ray

  565. Text #17
  566. ID                                       : 30
  567. ID in the original source medium         : 4779 (0x12AB)
  568. Format                                   : PGS
  569. Muxing mode                              : zlib
  570. Codec ID                                 : S_HDMV/PGS
  571. Codec ID/Info                            : Picture based subtitle format used on BDs/HD-DVDs
  572. Duration                                 : 55 min 43 s
  573. Bit rate                                 : 43 b/s
  574. Count of elements                        : 4
  575. Stream size                              : 17.7 KiB (0%)
  576. Title                                    : Italian-FORCED-PGS
  577. Language                                 : Italian
  578. Default                                  : No
  579. Forced                                   : No
  580. Original source medium                   : Blu-ray

  581. Text #18
  582. ID                                       : 31
  583. ID in the original source medium         : 4780 (0x12AC)
  584. Format                                   : PGS
  585. Muxing mode                              : zlib
  586. Codec ID                                 : S_HDMV/PGS
  587. Codec ID/Info                            : Picture based subtitle format used on BDs/HD-DVDs
  588. Duration                                 : 1 h 40 min
  589. Bit rate                                 : 24.1 kb/s
  590. Count of elements                        : 2182
  591. Stream size                              : 17.4 MiB (0%)
  592. Title                                    : Japanese-PGS
  593. Language                                 : Japanese
  594. Default                                  : No
  595. Forced                                   : No
  596. Original source medium                   : Blu-ray

  597. Text #19
  598. ID                                       : 32
  599. ID in the original source medium         : 4781 (0x12AD)
  600. Format                                   : PGS
  601. Muxing mode                              : zlib
  602. Codec ID                                 : S_HDMV/PGS
  603. Codec ID/Info                            : Picture based subtitle format used on BDs/HD-DVDs
  604. Duration                                 : 1 h 45 min
  605. Bit rate                                 : 17.2 kb/s
  606. Count of elements                        : 2292
  607. Stream size                              : 13.0 MiB (0%)
  608. Title                                    : Korean-PGS
  609. Language                                 : Korean
  610. Default                                  : No
  611. Forced                                   : No
  612. Original source medium                   : Blu-ray

  613. Text #20
  614. ID                                       : 33
  615. ID in the original source medium         : 4782 (0x12AE)
  616. Format                                   : PGS
  617. Muxing mode                              : zlib
  618. Codec ID                                 : S_HDMV/PGS
  619. Codec ID/Info                            : Picture based subtitle format used on BDs/HD-DVDs
  620. Duration                                 : 1 h 45 min
  621. Bit rate                                 : 35.4 kb/s
  622. Count of elements                        : 2402
  623. Stream size                              : 26.6 MiB (0%)
  624. Title                                    : Dutch-PGS
  625. Language                                 : Dutch
  626. Default                                  : No
  627. Forced                                   : No
  628. Original source medium                   : Blu-ray

  629. Text #21
  630. ID                                       : 34
  631. ID in the original source medium         : 4783 (0x12AF)
  632. Format                                   : PGS
  633. Muxing mode                              : zlib
  634. Codec ID                                 : S_HDMV/PGS
  635. Codec ID/Info                            : Picture based subtitle format used on BDs/HD-DVDs
  636. Duration                                 : 1 h 45 min
  637. Bit rate                                 : 33.7 kb/s
  638. Count of elements                        : 2384
  639. Stream size                              : 25.3 MiB (0%)
  640. Title                                    : Norwegian-PGS
  641. Language                                 : Norwegian
  642. Default                                  : No
  643. Forced                                   : No
  644. Original source medium                   : Blu-ray

  645. Text #22
  646. ID                                       : 35
  647. ID in the original source medium         : 4784 (0x12B0)
  648. Format                                   : PGS
  649. Muxing mode                              : zlib
  650. Codec ID                                 : S_HDMV/PGS
  651. Codec ID/Info                            : Picture based subtitle format used on BDs/HD-DVDs
  652. Duration                                 : 1 h 45 min
  653. Bit rate                                 : 29.5 kb/s
  654. Count of elements                        : 2184
  655. Stream size                              : 22.3 MiB (0%)
  656. Title                                    : Portuguese-PGS
  657. Language                                 : Portuguese
  658. Default                                  : No
  659. Forced                                   : No
  660. Original source medium                   : Blu-ray

  661. Text #23
  662. ID                                       : 36
  663. ID in the original source medium         : 4785 (0x12B1)
  664. Format                                   : PGS
  665. Muxing mode                              : zlib
  666. Codec ID                                 : S_HDMV/PGS
  667. Codec ID/Info                            : Picture based subtitle format used on BDs/HD-DVDs
  668. Duration                                 : 1 h 45 min
  669. Bit rate                                 : 33.2 kb/s
  670. Count of elements                        : 2456
  671. Stream size                              : 25.1 MiB (0%)
  672. Title                                    : Romanian-PGS
  673. Language                                 : Romanian
  674. Default                                  : No
  675. Forced                                   : No
  676. Original source medium                   : Blu-ray

  677. Text #24
  678. ID                                       : 37
  679. ID in the original source medium         : 4786 (0x12B2)
  680. Format                                   : PGS
  681. Muxing mode                              : zlib
  682. Codec ID                                 : S_HDMV/PGS
  683. Codec ID/Info                            : Picture based subtitle format used on BDs/HD-DVDs
  684. Duration                                 : 1 h 45 min
  685. Bit rate                                 : 35.7 kb/s
  686. Count of elements                        : 2392
  687. Stream size                              : 26.8 MiB (0%)
  688. Title                                    : Finnish-PGS
  689. Language                                 : Finnish
  690. Default                                  : No
  691. Forced                                   : No
  692. Original source medium                   : Blu-ray

  693. Text #25
  694. ID                                       : 38
  695. ID in the original source medium         : 4787 (0x12B3)
  696. Format                                   : PGS
  697. Muxing mode                              : zlib
  698. Codec ID                                 : S_HDMV/PGS
  699. Codec ID/Info                            : Picture based subtitle format used on BDs/HD-DVDs
  700. Duration                                 : 1 h 45 min
  701. Bit rate                                 : 34.6 kb/s
  702. Count of elements                        : 2394
  703. Stream size                              : 26.0 MiB (0%)
  704. Title                                    : Swedish-PGS
  705. Language                                 : Swedish
  706. Default                                  : No
  707. Forced                                   : No
  708. Original source medium                   : Blu-ray

  709. Text #26
  710. ID                                       : 39
  711. ID in the original source medium         : 4788 (0x12B4)
  712. Format                                   : PGS
  713. Muxing mode                              : zlib
  714. Codec ID                                 : S_HDMV/PGS
  715. Codec ID/Info                            : Picture based subtitle format used on BDs/HD-DVDs
  716. Duration                                 : 1 h 45 min
  717. Bit rate                                 : 25.0 kb/s
  718. Count of elements                        : 2352
  719. Stream size                              : 18.8 MiB (0%)
  720. Title                                    : Thai-PGS
  721. Language                                 : Thai
  722. Default                                  : No
  723. Forced                                   : No
  724. Original source medium                   : Blu-ray

  725. Text #27
  726. ID                                       : 40
  727. ID in the original source medium         : 4789 (0x12B5)
  728. Format                                   : PGS
  729. Muxing mode                              : zlib
  730. Codec ID                                 : S_HDMV/PGS
  731. Codec ID/Info                            : Picture based subtitle format used on BDs/HD-DVDs
  732. Duration                                 : 1 h 4 min
  733. Bit rate                                 : 475 b/s
  734. Count of elements                        : 20
  735. Stream size                              : 225 KiB (0%)
  736. Title                                    : Japanese-FORCED-PGS
  737. Language                                 : Japanese
  738. Default                                  : No
  739. Forced                                   : No
  740. Original source medium                   : Blu-ray

  741. Menu
  742. 00:00:00.000                             : en:Chapter 01
  743. 00:03:39.260                             : en:Chapter 02
  744. 00:05:36.878                             : en:Chapter 03
  745. 00:12:51.812                             : en:Chapter 04
  746. 00:14:36.041                             : en:Chapter 05
  747. 00:18:27.564                             : en:Chapter 06
  748. 00:24:49.779                             : en:Chapter 07
  749. 00:31:40.815                             : en:Chapter 08
  750. 00:36:25.975                             : en:Chapter 09
  751. 00:41:13.471                             : en:Chapter 10
  752. 00:45:05.369                             : en:Chapter 11
  753. 00:51:03.185                             : en:Chapter 12
  754. 00:53:32.584                             : en:Chapter 13
  755. 00:56:15.413                             : en:Chapter 14
  756. 01:01:38.444                             : en:Chapter 15
  757. 01:04:12.723                             : en:Chapter 16
  758. 01:11:31.954                             : en:Chapter 17
  759. 01:15:22.434                             : en:Chapter 18
  760. 01:20:36.957                             : en:Chapter 19
  761. 01:27:29.244                             : en:Chapter 20
  762. 01:33:12.670                             : en:Chapter 21
  763. 01:38:40.164                             : en:Chapter 22
  764. 01:43:11.018                             : en:Chapter 23
复制代码

轰隆男儿/雷声四起 Days.of.Thunder.1990.2160p.BluRay.REMUX.HEVC.DTS-HD.MA.TrueHD.5.1-FGT 60.81GB-2.png 轰隆男儿/雷声四起 Days.of.Thunder.1990.2160p.BluRay.REMUX.HEVC.DTS-HD.MA.TrueHD.5.1-FGT 60.81GB-3.png 轰隆男儿/雷声四起 Days.of.Thunder.1990.2160p.BluRay.REMUX.HEVC.DTS-HD.MA.TrueHD.5.1-FGT 60.81GB-4.png






本帖隐藏的下载地址需要VIP会员才可阅读,您需要升级才可阅读,点击这里升级VIP
回复

使用道具 举报

懒得打字嘛,点击右侧快捷回复 【右侧内容,后台自定义】
您需要登录后才可以回帖 登录 | 立即注册

本版积分规则

Archiver|手机版|小黑屋| 中国高清网 ( ICP备17007870号-2 ) |网站地图 

GMT+8, 2020-5-28 14:20 , Processed in 0.278057 second(s), 39 queries .

Powered by HDchina X3.4

Copyright 2017-2019©HDchina.All right reserved

返回顶部 联系我们