查看: 76|回复: 3

[剧情片] 爱玛/EMMA:上流贵族 Emma.2020.720p.BluRay.x264-DRONES 4.67GB

[复制链接]

 成长值: 5460

级别:资源管理组

注册时间
2017-10-20
最后登录
2020-5-28
听众
1
收听
0
主题
96235
蓝光币
152174 枚
贡献
20613 点
发表于 7 天前 | 显示全部楼层 |阅读模式
爱玛/EMMA:上流贵族 Emma.2020.720p.BluRay.x264-DRONES 4.67GB-1.png
6 ^! R! }5 D6 Z  |3 I, ?9 W& O5 u2 u" d; y
) q- R8 x+ ]* Q3 A5 h2 L: N译  名 爱玛 / EMMA:上流贵族(港) / 艾玛.(台). x1 {+ Q, m3 d2 i
片  名 Emma.2 {* a# G, G. v: }' B- b
年  代 2020; e; X& h9 ]9 {) `# Q+ n0 b
产  地 英国
& v, [+ J1 u* Z8 U5 K类  别 剧情 / 笑剧2 u- ?* ?5 |3 r- p3 n
语  言 英语
# q; }/ F& ]) r6 ~上映日期 2020-02-14(英国) / 2020-02-21(美国)
' b7 f! U# T0 a2 p( \) m8 OIMDb评分  6.8/10 from 13798 users
6 \1 [2 ]+ B: j& w# c& w3 K' x8 iIMDb链接  https://www.imdb.com/title/tt9214832
: v) P  ~; G1 K/ @  `0 d豆瓣评分 7.1/10 from 7034 users! n9 y7 d* C6 v- M8 f' K, e
豆瓣链接 https://movie.douban.com/subject/30361878/
2 u! O: x1 w! I0 A) X# o片  长 124分钟& F$ Y' _) c; O: Q
导  演 Autumn de Wilde  |0 |! ^3 s  t; e+ v$ m9 B
编  剧 Eleanor Catton / 简·奥斯汀 Jane Austen5 H4 k! e% C  q6 m/ j/ Y+ d
主  演 安雅·泰勒-乔伊 Anya Taylor-Joy& c1 N& e4 K  ~2 T" D1 \$ f
       强尼·弗林 Johnny Flynn% Z6 b- \& u/ L6 {4 f+ m0 I6 g
       比尔·奈伊 Bill Nighy$ ^1 }* G% m( `7 Y9 L  S7 |
       乔什·奥康纳 Josh O'Connor
) q2 R# X/ D9 S) D/ P; j' j* o       米娅·高斯 Mia Goth
- `% p3 y. H) B! t; }6 L+ [       卡勒姆·特纳 Callum Turner
  \) |1 G; G7 |       米兰达·哈特 Miranda Hart
) h. l- r! G! `2 V0 N       杰玛·韦兰 Gemma Whelan
) ]# F6 _% E+ z) f. s9 w* E       鲁珀特·格雷夫斯 Rupert Graves
% a! l" p  k& A/ Q, a. b9 U       塔尼娅·雷诺兹 Tanya Reynolds0 R4 C: j' J8 ~, o; }+ d
       康纳·斯温德尔 Connor Swindells
5 U8 P4 b9 e/ z       安珀·安德森 Amber Anderson( c8 c; A  h! Z0 ^
       克洛伊·皮里 Chloe Pirrie
4 N$ G/ r2 G- |0 o       莱迪·托马斯 Letty Thomas
6 M* K+ X5 E4 ?1 |' H1 p7 s# f0 [       Rose Shalloo3 k( c/ o  S) P  @  l0 E4 C
       Isabella Kennard-Barden$ |- I6 n) R, [1 O* x( _
       Jill Buchanan7 ~% H% W1 `! q8 o2 O+ b

. k7 h" O7 G& ?! @8 a
. R( W' O# x- b$ B0 @标  签 简·奥斯汀 | 英国 | 恋爱 | 文学改编 | 2020 | 英国电影 | 典范 | 剧情
3 U5 c+ ~7 ?) p% V0 }( C  T# r! v1 n, m; F
简  介  7 K3 Z# B* g  o' l2 w

2 U5 b+ i) z/ j3 G  改编自简·奥斯汀备受爱好的笑剧,重新描画出寻觅真爱与幸运终局的故事。 标致,聪慧,富有的爱玛·伍德豪斯在这个无聊平淡的小镇裡就像一只静不下来的女王蜂。 但是,在这充溢着反讽社会阶级与青涩的长大故事裡,爱玛在履历过连续串乱点鸳鸯和误判形式后,发现真爱一向在身旁。* w! H' k1 m5 m: F
  1. Video
    5 Q$ W' I8 n# x1 N/ C4 v% O
  2. ID                                       : 1# ?3 M1 X6 Z' U0 i9 V
  3. Format                                   : AVC
    : c7 o; ?' h! ^# }2 r) z1 ?& N
  4. Format/Info                              : Advanced Video Codec
    0 U4 [; r) ~1 l7 k
  5. Format profile                           : High@L4' O+ Q' j' @7 T2 R
  6. Format settings                          : CABAC / 8 Ref Frames6 E0 n1 K' w; o* Q0 i0 |
  7. Format settings, CABAC                   : Yes
    7 u) k4 F( Y0 P
  8. Format settings, Reference frames        : 8 frames
    : l. t3 i, K8 ?) Y5 v5 Z7 s
  9. Codec ID                                 : V_MPEG4/ISO/AVC
    1 u$ B0 j" C, E  p
  10. Duration                                 : 2 h 4 min7 N: Y1 W1 H3 E# N
  11. Bit rate                                 : 4 583 kb/s+ `" T5 I6 t* E4 i8 M* X0 h3 Y) T- B
  12. Width                                    : 1 280 pixels
    ! D9 ]5 `, r# ?2 {5 x3 Q/ [5 t
  13. Height                                   : 720 pixels
    6 ~1 \; _: L0 H" o+ f0 B! l- k
  14. Display aspect ratio                     : 16:9  p( _1 C" W1 D
  15. Frame rate mode                          : Constant, }6 f0 D' [5 y3 t, J! d+ m$ |. [
  16. Frame rate                               : 23.976 (24000/1001/189150) FPS
    9 t) ?* ~3 M+ v9 f5 M& K; o
  17. Color space                              : YUV* d; d' X; E6 L! I* v2 k
  18. Chroma subsampling                       : 4:2:0
    1 m0 A+ t* W' S8 j
  19. Bit depth                                : 8 bits
    ' r+ C0 p7 X& C: w+ Q* F
  20. Scan type                                : Progressive
    " A( A6 I: S7 F3 t/ n+ f
  21. Bits/(Pixel*Frame)                       : 0.207
    3 C) Z5 B/ z5 x1 x
  22. Stream size                              : 3.98 GiB (85%)" O$ O  ]# t/ w2 o# K
  23. Writing library                          : x264 core 160 r3000 33f9e14
    $ D8 S, T6 v3 h/ N8 I8 y
  24. Encoding settings                        : cabac=1 / ref=8 / deblock=1:-3:-3 / analyse=0x3:0x133 / me=umh / subme=9 / psy=1 / psy_rd=1.00:0.00 / mixed_ref=1 / me_range=16 / chroma_me=1 / trellis=2 / 8x8dct=1 / cqm=0 / deadzone=21,11 / fast_pskip=1 / chroma_qp_offset=-2 / threads=22 / lookahead_threads=1 / sliced_threads=0 / nr=0 / decimate=1 / interlaced=0 / bluray_compat=0 / constrained_intra=0 / bframes=3 / b_pyramid=2 / b_adapt=2 / b_bias=0 / direct=3 / weightb=1 / open_gop=0 / weightp=2 / keyint=250 / keyint_min=23 / scenecut=40 / intra_refresh=0 / rc_lookahead=60 / rc=crf / mbtree=1 / crf=15.0 / qcomp=0.60 / qpmin=0 / qpmax=69 / qpstep=4 / ip_ratio=1.40 / aq=1:1.00. g9 a: O; D+ C& I% b
  25. Language                                 : English0 |. r# }: |- c  j) c
  26. Default                                  : Yes+ }* [4 |! K1 N4 c
  27. Forced                                   : No
    1 s$ c4 f* W3 J) J. a- W! G" n; d
  28. : D- Z/ o* X# J% q( J4 r3 U
  29. Audio #1
      _- A9 A  A- a8 ?
  30. ID                                       : 2! m5 ?8 [% s/ t/ j7 ^8 D
  31. Format                                   : AC-37 Z  _' M6 m7 H. X+ [$ T
  32. Format/Info                              : Audio Coding 3/ W' N: N  U$ P; V. ]( D3 s
  33. Commercial name                          : Dolby Digital  c8 I  Z2 s) p6 B# `' o
  34. Codec ID                                 : A_AC3. }' S4 V) o+ |6 u, O
  35. Duration                                 : 2 h 4 min
    * m% `% s7 \$ t1 W- w8 U5 c1 F
  36. Bit rate mode                            : Constant% {) x% K; _0 e/ t! U7 i
  37. Bit rate                                 : 640 kb/s! o; A5 ~3 k  n# @5 m" t" f
  38. Channel(s)                               : 6 channels
    6 c, S' W! [# U' \3 y8 N$ p
  39. Channel layout                           : L R C LFE Ls Rs! R, r3 K  ^5 j# C' W% o
  40. Sampling rate                            : 48.0 kHz1 F* B5 E6 ]0 k# Y& O. {' _: B
  41. Frame rate                               : 31.250 FPS (1536 SPF)
    $ Q4 f' F3 w3 u3 ^2 c: d9 S" ?
  42. Bit depth                                : 16 bits
    0 }/ A# o! N5 G4 S
  43. Compression mode                         : Lossy
    " X7 x9 g; _" C7 h4 c" i) f
  44. Stream size                              : 569 MiB (12%)
    ' m% k0 p  m0 T4 u9 r
  45. Title                                    : English
    5 J. M9 f; [+ X, g" E$ }( [
  46. Language                                 : English7 }( y8 |5 E& G
  47. Service kind                             : Complete Main/ W! U' }9 @  t2 X/ P
  48. Default                                  : Yes3 C( @5 F% S! \2 I: a% b3 u
  49. Forced                                   : No
    , H3 q' X: ^) T6 t$ M' f8 S7 I/ J7 S

  50. ; i% B0 }9 O; U- }
  51. Audio #2
    & @' n4 p% `. p# D. z
  52. ID                                       : 39 P  o7 {( [4 a( {$ g; R
  53. Format                                   : AAC LC
    % h  ~- v+ T* _1 @
  54. Format/Info                              : Advanced Audio Codec Low Complexity1 T) \/ W. Q5 M
  55. Codec ID                                 : A_AAC-2
    5 L1 N5 d1 ^8 A$ W/ u
  56. Duration                                 : 2 h 4 min
    ( ^, _3 m2 u' h7 L
  57. Bit rate                                 : 96.0 kb/s
    ) ~! ?' }  J0 d
  58. Channel(s)                               : 2 channels- q& H5 {  \# L( j
  59. Channel layout                           : L R
    * a+ j4 m. O9 S
  60. Sampling rate                            : 48.0 kHz
    " a2 T+ \  ^4 j0 U( o- U
  61. Frame rate                               : 46.875 FPS (1024 SPF)
    - ]  q& [) j: ?
  62. Compression mode                         : Lossy
    - _. O1 s) |$ M& T- C
  63. Delay relative to video                  : 9 ms
    7 n% w; z4 d$ Y1 f6 W6 V$ P
  64. Stream size                              : 86.3 MiB (2%)
    0 B; j  P  {, `: x/ a4 C) x
  65. Title                                    : Commentary3 {0 k$ L7 X* ~
  66. Language                                 : English* u" g  J* s. A8 L/ Q; U
  67. Default                                  : No
    , k$ j  N" u. C
  68. Forced                                   : No
    ( {: D  A3 b& w9 w2 S7 k* K
  69. " D6 u& I/ f8 k$ T9 m# h
  70. Text #1
    ' @& P/ @" y/ E! N0 I1 b
  71. ID                                       : 43 T9 e' W" G! ^6 v& K$ I0 N
  72. Format                                   : PGS
    . d7 d3 n1 r6 P, r" o
  73. Muxing mode                              : zlib
    * J7 o! q1 U% `
  74. Codec ID                                 : S_HDMV/PGS! f; o2 r; n  G8 w
  75. Codec ID/Info                            : Picture based subtitle format used on BDs/HD-DVDs
    0 |5 w3 y4 E& Z) p( h- g
  76. Duration                                 : 2 h 2 min
    ' C4 V; Q% |- V
  77. Bit rate                                 : 42.7 kb/s7 R  n8 {3 A9 Z* g
  78. Count of elements                        : 3028
    , S5 t9 D5 e$ C/ P  I6 [% ], Y
  79. Stream size                              : 37.5 MiB (1%)
    : G$ ~* g  T- T$ {( s! m: l
  80. Title                                    : English SDH
    + ]  w% q6 Z- x* [; H0 Z6 R4 H2 ?
  81. Language                                 : English8 K3 y, @; ]9 k+ M
  82. Default                                  : No
    4 v+ I, y# p, W# y2 H
  83. Forced                                   : No% v5 W& T) I2 S) x* O- F

  84.   |1 J6 y) e- ?) h% k  R' R2 ?
  85. Text #25 L  p$ K7 b: w1 T
  86. ID                                       : 5
    3 ~6 T; ^' D  n' `: F
  87. Format                                   : PGS
    $ |% Z# D- }! P7 ~' A3 [
  88. Muxing mode                              : zlib
    : E4 E% Y5 s5 A, i: W! E( `7 f
  89. Codec ID                                 : S_HDMV/PGS
    6 a8 q9 J, g/ Y3 w
  90. Codec ID/Info                            : Picture based subtitle format used on BDs/HD-DVDs) l1 n% ]% f& _. ~: L+ \# a# T
  91. Duration                                 : 2 h 3 min
    & M) p) A+ {1 o9 u
  92. Bit rate                                 : 34.8 kb/s
    * ?9 A' [8 i1 G* k5 r" N" ]  |
  93. Count of elements                        : 2586
    0 N  V1 o0 r: R+ z
  94. Stream size                              : 30.7 MiB (1%)$ h* Y1 j9 F1 C' }; W4 a
  95. Title                                    : Spanish1 ?! w! w( n; x- V
  96. Language                                 : Spanish' t1 a. T5 v) e% S/ ^0 |
  97. Default                                  : No5 M+ c( O+ J& f4 y& P
  98. Forced                                   : No
    ' P$ o# O9 Q( Y; S
  99. ! d) o8 p& v5 M" t- Y
  100. Text #3* W/ @& D1 i2 U  X/ w
  101. ID                                       : 6
    4 M4 u% {8 r8 Z& c7 o5 ^& W9 I7 ^- ]
  102. Format                                   : PGS: ]* X9 G1 L2 Q
  103. Muxing mode                              : zlib; _6 d8 m/ c0 C
  104. Codec ID                                 : S_HDMV/PGS
    4 b& u- r0 w9 O# t+ M6 R+ Z
  105. Codec ID/Info                            : Picture based subtitle format used on BDs/HD-DVDs2 |1 T6 v  {& A* f1 _8 j  {: Y; j
  106. Duration                                 : 2 h 3 min5 ?# P" `  p9 R0 p6 s( {8 C, O7 O
  107. Bit rate                                 : 38.6 kb/s- s+ X* x5 j4 n/ `( P3 ]8 }
  108. Count of elements                        : 2580
    9 j/ E  L  U( Y( j' X  ]6 P4 o" H
  109. Stream size                              : 34.1 MiB (1%)
    ) _2 N" j6 d/ `: B% k" a4 Z6 H
  110. Title                                    : French" t8 p" b1 L) H6 @
  111. Language                                 : French, ~( @; S0 x, w/ L% `
  112. Default                                  : No1 Y/ H" l" d. R5 a
  113. Forced                                   : No
    / i* X) z4 ?: l) c7 a& k
  114. - n5 d9 ?1 U1 ~# k2 l. r
  115. Text #4
    3 c- b$ L8 s# f' H
  116. ID                                       : 7# S: U1 E& B  T' `( V0 b
  117. Format                                   : PGS
    % |0 I! U8 T: t, e
  118. Muxing mode                              : zlib% E0 ?7 i  m2 g# G0 J0 C; f5 E
  119. Codec ID                                 : S_HDMV/PGS- a/ \- z/ k2 t; {0 ~7 E% {
  120. Codec ID/Info                            : Picture based subtitle format used on BDs/HD-DVDs( E: \) s5 a; ^0 K% Q
  121. Duration                                 : 2 h 3 min
    , L$ P: q& z) H, A) ]2 S: b3 x: u
  122. Bit rate                                 : 267 b/s
    8 O. k' z( O' ?
  123. Count of elements                        : 26
    ) M4 p0 J, _( n/ g3 I; X
  124. Stream size                              : 242 KiB (0%)7 h  |# F0 D# g5 C( B
  125. Title                                    : French
    / a# T* W" u1 h
  126. Language                                 : French4 s+ e6 M9 f% x
  127. Default                                  : No
    3 d0 ~2 o$ P$ t
  128. Forced                                   : No- @/ A8 D; N  J
  129. 4 X/ s; h$ H+ m. Q; Q! ~2 R) ]
  130. Menu
    3 n, L0 ]% Q, A6 }! r! d' h0 x
  131. 00:00:00.000                             : en:Chapter 01
    , ]4 {9 h3 D3 Y
  132. 00:07:32.827                             : en:Chapter 021 z4 W2 i( j) B: W; [" I; D
  133. 00:11:26.311                             : en:Chapter 03
    6 H- k; k/ r$ E' w4 a  A4 T
  134. 00:16:21.564                             : en:Chapter 04
    0 {' ~) l: L$ T2 ?$ s$ S
  135. 00:21:52.603                             : en:Chapter 05
    # f% D6 ?; N# A, F' e2 l  v
  136. 00:25:30.988                             : en:Chapter 06
    * X( p7 t! ]" h  r% v7 M. e) V
  137. 00:31:46.613                             : en:Chapter 07
    3 |+ K1 C$ b* T
  138. 00:35:59.657                             : en:Chapter 083 k. `: y" t% d- d, n; i) e8 F5 }
  139. 00:44:14.277                             : en:Chapter 099 ^4 D* w( I( U: [
  140. 00:47:31.724                             : en:Chapter 10
    + o4 ]9 g  z  {; [0 w# u
  141. 00:56:16.790                             : en:Chapter 11
    & f3 _- @/ ~( x% e8 x8 V( Q
  142. 01:00:16.321                             : en:Chapter 12
    8 I% B1 L6 S4 r
  143. 01:05:16.329                             : en:Chapter 13; E/ @' q7 p- d( |0 x
  144. 01:09:28.289                             : en:Chapter 14& b* v% f7 D! z9 P: {
  145. 01:18:26.535                             : en:Chapter 15
    ( |- F0 {% n: G# R, B8 S
  146. 01:25:05.058                             : en:Chapter 16' Z* g- s; w1 b7 _: o; a$ |
  147. 01:35:06.659                             : en:Chapter 17
    1 z3 D/ E5 p( ?2 y% W4 I7 f
  148. 01:43:40.965                             : en:Chapter 18
    0 y, ^' P+ E/ c! ]$ F+ V
  149. 01:55:16.576                             : en:Chapter 19. M6 D" E( L1 q2 r- I
  150. 01:57:23.036                             : en:Chapter 20
复制代码
& L6 o! x" ?% _9 @- {8 v+ z
爱玛/EMMA:上流贵族 Emma.2020.720p.BluRay.x264-DRONES 4.67GB-2.png
' P: V: D" A3 {1 H; g1 Q* R* [( Q0 w
. K$ w! t$ @/ s' h2 F- L6 b- p+ _+ M7 [
) I" i8 H0 o6 d# g8 o; P3 o% V# I

  J7 P2 |" Q& L1 C3 r: b. U3 q1 x4 D7 B: Q; Z
本帖隐藏的下载地址需要VIP会员才可阅读,您需要升级才可阅读,点击这里升级VIP
! g$ b! E3 N& i1 S- k! B
回复

使用道具 举报

 成长值: 2875

级别:尊贵的会员

注册时间
2019-12-4
最后登录
2020-5-27
听众
1
收听
0
主题
0
蓝光币
8 枚
贡献
0 点
发表于 7 天前 | 显示全部楼层
安雅·泰勒-乔伊真漂亮
回复

使用道具 举报

级别:群众演员 Lv.3

注册时间
2020-2-10
最后登录
2020-5-28
听众
1
收听
0
主题
0
蓝光币
59 枚
贡献
0 点
发表于 5 天前 | 显示全部楼层
楼主发贴辛苦了,谢谢楼主分享!我觉得中国高清电影网是注册对了!
回复

使用道具 举报

 成长值: 1290

级别:尊贵的会员

注册时间
2020-3-1
最后登录
2020-5-28
听众
2
收听
0
主题
0
蓝光币
331 枚
贡献
0 点
发表于 4 天前 | 显示全部楼层
楼主发贴辛苦了,谢谢楼主分享!我觉得中国高清电影网是注册对了!
回复

使用道具 举报

懒得打字嘛,点击右侧快捷回复 【右侧内容,后台自定义】
您需要登录后才可以回帖 登录 | 立即注册

本版积分规则

Archiver|手机版|小黑屋| 中国高清网 ( ICP备17007870号-2 ) |网站地图 

GMT+8, 2020-5-28 20:59 , Processed in 0.175011 second(s), 39 queries .

Powered by HDchina X3.4

Copyright 2017-2019©HDchina.All right reserved

返回顶部 联系我们