查看: 53|回复: 0

[剧情片] 真相 The.Truth.2019.720p.BluRay.x264-CADAVER 6.56GB

[复制链接]

 成长值: 5460

级别:资源管理组

注册时间
2017-10-20
最后登录
2020-5-28
听众
1
收听
0
主题
96235
蓝光币
152168 枚
贡献
20613 点
发表于 7 天前 | 显示全部楼层 |阅读模式
真相 The.Truth.2019.720p.BluRay.x264-CADAVER 6.56GB-1.png
( z, o# x7 B/ T, A/ f3 @/ p
" j: k# E, f5 T2 u译  名 真相 / Mother and Daughter / The Truth / The Truth About Catherine / 凯瑟琳的真相 / 母女 / 实在 / 实在芳言(港) / 真実, n: _/ ^, Y/ k4 s0 h! v0 O, L
片  名 La vérité
7 ^, I/ R: l1 A年  代 2019
9 ?0 k; ], Z8 P1 u4 V产  地 法国 / 日本, e  a+ S% z. P0 J4 t1 T7 f
类  别 剧情
2 h$ {- l8 ~% U- H; H3 G' ?语  言 法语 / 英语
6 T+ o9 y  }2 E) a9 ~上映日期 2019-08-28(威尼斯电影节) / 2019-10-11(日本) / 2020-01-22(法国)
! [& f2 c# j7 P3 E, lIMDb评分  6.4/10 from 2405 users
  X  i, U8 g1 H7 wIMDb链接  https://www.imdb.com/title/tt83231207 M" I- q% o  @! L4 e
豆瓣评分 7.1/10 from 5266 users5 t$ a4 |1 I4 C" T) R
豆瓣链接 https://movie.douban.com/subject/30140107/+ j3 f  {1 j7 R/ |- A, l, E
片  长 106分钟( S* ?- K2 k( H  {; q: }* s
导  演 是枝裕和 Hirokazu Koreeda
6 R; b: U$ r2 S6 r& _编  剧 是枝裕和 Hirokazu Koreeda / 刘宇昆 Ken Liu
; F" u# O& B$ l主  演 凯瑟琳·德纳芙 Catherine Deneuve. k$ a- f/ p- e7 m1 g
       朱丽叶·比诺什 Juliette Binoche: S& p, e$ z- B* X% }4 t$ @
       伊桑·霍克 Ethan Hawke+ A8 E0 K; h" B; Q% M; u: J
       露德温·塞尼耶 Ludivine Sagnier; f- h" _4 y5 k9 T
       阿兰·利博 Alain Libolt
7 }4 Z  f5 n* G: T       罗杰·范·胡尔 Roger Van Hool
' w6 H( o7 Q. X3 D  p       洛朗特·卡普洛托 Laurent Capelluto( d- U# Q1 C9 d0 V$ X1 u
       玛雅·珊萨 Maya Sansa3 v# t  Z+ Y, d7 s( O- J
       杰基·贝约尔 Jackie Berroyer1 w( [2 ^& [1 `* [; F
       赫尔米·德里迪 Helmi Dridi  J, q, e/ t6 j4 D# W  H/ w
       Virgile Fouilou
( |+ W6 i0 |8 G, N1 G( {$ `       Stéphane Ly-Cuong+ J2 }1 u' s- H4 A* U" k! V0 v
       亚历珊德拉·耶尔马克 Aleksandra Yermak
! N  z' y5 G; d8 u; Y1 s       Sébastien Chassagne
5 V, R$ ^& d2 c: ]       Manon Clavel7 f2 O8 ~1 g6 Z3 h! X  g+ I
       Clémentine Grenier* Y& s3 ?, `2 B
       Christian Crahay. x% M  h6 G2 C( J! O; X

6 M+ a- q  G+ d% K# R3 c8 m: H& i4 Z! ^# E: P
标  签 是枝裕和 | 法国 | 日本 | 2019 | 朱丽叶·比诺什 | 法国电影 | 伊桑霍克 | 剧情$ A4 k- H) O- v
: F4 t+ }. z- ?6 ]& x
简  介  7 L# j7 y# b% L/ |$ y( @/ ]% d
6 O, }1 `$ W) v3 x3 C
  Fabienne是一个女星——是法国影坛巨星。在拥护爱戴她的汉子眼前她是高屋建瓴的女神。她的女儿因她出书回忆录而带着丈夫和年幼的孩子从纽约回到巴黎。母女二人的重聚很快便酿成相互指责:真相将被揭穿、算清一切前帐,向对方安然认可自己的爱和怨恨。
1 g" @, V3 q. e0 I6 F
- A" y+ i, a5 }获奖情况  4 f. h5 ~) u6 {5 X, F2 {& g
8 l2 N6 e, [: U5 v' k
  第76届威尼斯电影节(2019)
2 c/ t0 q, ~1 ]6 z  主比赛单元 金狮奖 (提名) 是枝裕和/ P) h6 E; @7 u& t
  1. Video
    1 o3 j, Y" T  i  g' `* a" ~: e- e
  2. ID                                       : 1! U. l4 V5 l0 D* i( V$ Q
  3. Format                                   : AVC6 F- B4 p  d- b7 r. ^
  4. Format/Info                              : Advanced Video Codec5 ?' {, @, d: K9 _7 U
  5. Format profile                           : High@L41 N1 @5 Y8 \: o/ g7 S7 E$ S# O
  6. Format settings                          : CABAC / 9 Ref Frames
    8 P  k! d/ Y+ k" \2 X
  7. Format settings, CABAC                   : Yes/ J, n, e( P1 S* G9 M
  8. Format settings, Reference frames        : 9 frames
    ; U" |- [* A& g* Q0 M) p
  9. Codec ID                                 : V_MPEG4/ISO/AVC
    0 }2 S; e  y9 {' l- Y5 x4 K
  10. Duration                                 : 1 h 47 min
    3 |7 {' {6 Q% ]* z0 i( G
  11. Bit rate                                 : 8 119 kb/s( x3 Z9 G! }- W' V9 m# u
  12. Width                                    : 1 280 pixels) ?. z$ R" w2 E+ _  I5 U  r
  13. Height                                   : 692 pixels
    & w) D- K1 |7 @" g% z. V
  14. Display aspect ratio                     : 1.85:1
    2 B& ]8 Z: `5 x, m1 u5 L+ f
  15. Frame rate mode                          : Constant7 n& N3 J0 S1 M8 t
  16. Frame rate                               : 24.000 FPS
    2 I4 S; ?4 J% p( `; z
  17. Color space                              : YUV
    9 m4 f4 ^( _( Y- g. U4 n5 U6 ]) ~
  18. Chroma subsampling                       : 4:2:0; v& f8 K. @( ]! |
  19. Bit depth                                : 8 bits. J" X8 U) D% d$ V* L9 P& W
  20. Scan type                                : Progressive
    8 C+ X9 Z# l& W3 G( O7 _% i0 S+ r
  21. Bits/(Pixel*Frame)                       : 0.382
    ; _7 f6 i+ ~" u+ }; |) `. H
  22. Stream size                              : 6.08 GiB (93%)
    0 ?+ A* ^3 J6 n; |6 g. I
  23. Writing library                          : x264 core 160 r3000 33f9e14
    * v1 e; @7 f: a; g( {) b
  24. Encoding settings                        : cabac=1 / ref=9 / deblock=1:-3:-3 / analyse=0x3:0x133 / me=umh / subme=10 / psy=1 / psy_rd=1.50:0.15 / mixed_ref=1 / me_range=24 / chroma_me=1 / trellis=2 / 8x8dct=1 / cqm=0 / deadzone=21,11 / fast_pskip=0 / chroma_qp_offset=-3 / threads=22 / lookahead_threads=3 / sliced_threads=0 / nr=0 / decimate=0 / interlaced=0 / bluray_compat=0 / constrained_intra=0 / bframes=8 / b_pyramid=2 / b_adapt=2 / b_bias=0 / direct=3 / weightb=1 / open_gop=0 / weightp=2 / keyint=250 / keyint_min=24 / scenecut=40 / intra_refresh=0 / rc=crf / mbtree=0 / crf=18.6 / qcomp=0.60 / qpmin=0 / qpmax=69 / qpstep=4 / ip_ratio=1.40 / pb_ratio=1.30 / aq=3:0.50& q- u2 x7 }8 R, ~/ Y
  25. Default                                  : Yes
    1 `) F- g0 d. o9 r; s" I
  26. Forced                                   : No! L8 B" y+ `7 Z2 O, \5 n! M
  27. Color range                              : Limited* j8 K' ?% k8 U) ^' {4 k+ B9 ~
  28. Matrix coefficients                      : BT.7097 U% ]- D( k7 ~
  29. 3 w2 U# X5 v4 J7 w0 ~* j  n8 U
  30. Audio0 E6 _, u" X# [2 b
  31. ID                                       : 2
    7 n( ^3 l; `0 I2 U
  32. Format                                   : AC-3% S; H3 k; I6 f4 V0 i' W: |
  33. Format/Info                              : Audio Coding 3* l! i( {5 }1 x# ^, l$ M
  34. Commercial name                          : Dolby Digital
    , _! C! y+ K8 r4 ?- I8 a6 `/ d
  35. Codec ID                                 : A_AC3) k& i8 h. f4 G5 Q
  36. Duration                                 : 1 h 47 min4 k9 k# U0 q* G# |* q
  37. Bit rate mode                            : Constant! k4 K9 U# Q/ I* t% Y
  38. Bit rate                                 : 640 kb/s
    & S0 X. _% Z% D6 ^( m, ^  S! U6 _
  39. Channel(s)                               : 6 channels  i& C7 H! N. Q5 I
  40. Channel layout                           : L R C LFE Ls Rs
    4 T, b* ?' N  e6 `# m1 j* O8 H  ?
  41. Sampling rate                            : 48.0 kHz! I! H8 m# W$ O# {+ P: v# v# ^4 i3 g
  42. Frame rate                               : 31.250 FPS (1536 SPF)
    , ^, o1 w9 k% i: f+ X& a
  43. Bit depth                                : 16 bits
    6 R( t& V( D5 i6 o* R+ d
  44. Compression mode                         : Lossy% P* ?  |" g6 C7 m* g" E( i
  45. Stream size                              : 491 MiB (7%)
    1 o( `& m) r0 \9 N' B, o
  46. Language                                 : French
    % B0 p8 ?$ u8 ~) x& R7 _) y
  47. Service kind                             : Complete Main
    9 n) t6 l# ~, c, C) v
  48. Default                                  : Yes
    5 z$ E) s3 S  E7 L
  49. Forced                                   : No  }+ B$ L" J& K1 `; s. h
  50. $ _9 T. C7 {+ G! ?. K
  51. Text #1
    1 u4 ]- a$ u" A( S2 r
  52. ID                                       : 3" y/ D1 A0 `# |  c
  53. Format                                   : UTF-8
    " E6 `4 f8 h: L' |& K
  54. Codec ID                                 : S_TEXT/UTF8
    ! o9 N2 s: l2 o8 J
  55. Codec ID/Info                            : UTF-8 Plain Text1 P6 `8 y. K. j& z; j" W' L
  56. Duration                                 : 1 h 41 min: e& S. F5 T/ i
  57. Bit rate                                 : 42 b/s
    8 x* O" \2 f4 t6 D( I' E2 O' d7 E2 G
  58. Count of elements                        : 1208
    1 s  s/ s! J7 A
  59. Stream size                              : 31.9 KiB (0%)5 b+ ]. E7 A2 f  [
  60. Title                                    : English (Forced)$ n/ N4 E! U! m2 ?) G  S
  61. Language                                 : English: X1 A: s8 S- v$ W$ A1 _0 a% b- G
  62. Default                                  : Yes2 T& K8 A* j/ R5 Q3 i( }  B
  63. Forced                                   : Yes; N/ A0 m( k4 I# d! a- b% m  V
  64. 7 R8 F2 m; Z+ I
  65. Text #2- \# ]  D3 [* q7 C3 l8 q
  66. ID                                       : 4
      o% ?& u7 O3 l+ z4 N& Y2 f# j- d
  67. Format                                   : PGS4 n1 k' a1 b! X  \2 ]: l$ g
  68. Muxing mode                              : zlib
    ' x2 @" W+ U0 K  V5 O5 T
  69. Codec ID                                 : S_HDMV/PGS5 h5 H' s5 N0 r8 d9 F
  70. Codec ID/Info                            : Picture based subtitle format used on BDs/HD-DVDs
    & F- v, Y% R  f! O' F, D4 C4 }
  71. Duration                                 : 1 h 41 min; C% J- X. j# y
  72. Bit rate                                 : 24.7 kb/s) n: I- _$ P  A" {! S$ \
  73. Count of elements                        : 2416) B3 d( Z( ^: n1 O% l/ Q! V) R
  74. Stream size                              : 18.0 MiB (0%)& B( O' H/ C8 J$ ?
  75. Language                                 : English
    + R# U5 t: P& L& U: r
  76. Default                                  : No
    9 W9 ^0 b  [% Z+ ]" r  {( e9 ?2 S
  77. Forced                                   : No2 \5 r! F- _! T3 S' [

  78. ' j+ n% K( y# D: F( `
  79. Menu$ `( h8 f( J! p/ A  u4 t+ Y/ x
  80. 00:00:00.000                             : en:Chapter 011 ]) L( q: }" e4 g% l. I) c8 |: V
  81. 00:10:40.500                             : en:Chapter 02' `! h9 |* j! M1 `3 p( H7 g: v
  82. 00:19:59.917                             : en:Chapter 03: }/ d, E/ B6 [- o
  83. 00:31:06.750                             : en:Chapter 04
    . `$ [+ ~% }* t9 f! `
  84. 00:40:48.750                             : en:Chapter 05' V6 H' a! W9 \
  85. 00:47:16.750                             : en:Chapter 067 Q6 q: Q( T# [0 g
  86. 00:59:06.625                             : en:Chapter 07
    + c7 F9 d* u. V( D) J; w
  87. 01:06:54.833                             : en:Chapter 08
    * g% I! K, t  O( K2 X1 l
  88. 01:14:02.375                             : en:Chapter 09
    ! ~% B1 T6 ?8 L* Q
  89. 01:23:47.083                             : en:Chapter 10
    . K* g' h5 e' ?7 y  W
  90. 01:32:24.125                             : en:Chapter 11
    , \% m" \. R2 i) K: A
  91. 01:42:44.042                             : en:Chapter 12
复制代码
, {0 Q/ K- J$ N! [
真相 The.Truth.2019.720p.BluRay.x264-CADAVER 6.56GB-2.png
. r, V" @5 F2 ^2 k
5 C1 n2 a! @6 y. D/ R! |: k. u! {
, m/ p$ U# m* t5 K
% ^' v7 S" }$ b6 j# k2 ~7 @; i/ V- x3 ]9 q, d2 S; _% p
! B- l  N5 @* b5 q
本帖隐藏的下载地址需要VIP会员才可阅读,您需要升级才可阅读,点击这里升级VIP
0 m6 T: F! W  V8 O0 x, E) @# `
回复

使用道具 举报

懒得打字嘛,点击右侧快捷回复 【右侧内容,后台自定义】
您需要登录后才可以回帖 登录 | 立即注册

本版积分规则

Archiver|手机版|小黑屋| 中国高清网 ( ICP备17007870号-2 ) |网站地图 

GMT+8, 2020-5-28 20:25 , Processed in 0.183899 second(s), 39 queries .

Powered by HDchina X3.4

Copyright 2017-2019©HDchina.All right reserved

返回顶部 联系我们