查看: 141|回复: 0

[10bit.HDR] 刺猬索尼克/超音鼠大电影 Sonic.the.Hedgehog.2020.2160p.UHD.BluRay.X265.10bit.HDR.TrueHD.7.1.Atmos-TERMiNAL 11.52GB

[复制链接]

 成长值: 5460

级别:资源管理组

注册时间
2017-10-20
最后登录
2020-5-28
听众
1
收听
0
主题
96229
蓝光币
152016 枚
贡献
20607 点
发表于 7 天前 | 显示全部楼层 |阅读模式
刺猬索尼克/超音鼠大电影 Sonic.the.Hedgehog.2020.2160p.UHD.BluRay.X265.10bit.HDR.TrueHD.7.1.Atmos-TERMiNAL 11.52GB-1.png

译  名 刺猬索尼克 / 超音鼠大电影(港) / 音速小子(台)
片  名 Sonic the Hedgehog
年  代 2020
产  地 加拿大 / 日本 / 美国
类  别 笑剧 / 行动 / 动画 / 冒险
语  言 英语
上映日期 2020(中国大陆) / 2020-02-14(美国)
IMDb评分  6.6/10 from 54920 users
IMDb链接  https://www.imdb.com/title/tt3794354
豆瓣评分 6.1/10 from 13688 users
豆瓣链接 https://movie.douban.com/subject/25905044/
片  长 99分钟
导  演 杰夫·福勒 Jeff Fowler
编  剧 范·罗比查乌克斯 Van Robichaux / 埃文·萨瑟 Evan Susser / 乔什·米勒 Josh Miller / Patrick Casey / 奥伦·尤济尔 Oren Uziel / 中裕司 Yuji Naka / Naoto Ohshima / Hirokazu Yasuhara
主  演 詹姆斯·麦斯登 James Marsden
       金·凯瑞 Jim Carrey
       本·施瓦茨 Ben Schwartz
       提卡·森普特 Tika Sumpter
       娜塔莎·罗斯韦尔 Natasha Rothwell
       亚当·佩里 Adam Pally
       李·马贾道布 Lee Majdoub
       尼尔·麦克唐纳 Neal McDonough
       汤姆·巴特勒 Tom Butler
       弗兰克·C·特纳 Frank C. Turner
       梅洛德·诺西普·尼曼 Melody Nosipho Niemann
       珊农·陈-肯特 Shannon Chan-Kent
       布拉德·凯利 Brad Kelly
       尔芬娜·卢克 Elfina Luk
       加里·切克 Gary Chalk
       迈克尔·霍根 Michael Hogan
       珍妮·克鲁蒂尔 Jeanie Cloutier
       贝利·斯科德里 Bailey Skodje
       杰夫·桑卡 Jeff Sanca
       丽莎·钱德勒 Lisa Chandler
       科琳·欧肖内希 Colleen O'Shaughnessey
       利安娜·拉普 Leanne Lapp


标  签 游戏改编 | 动画 | 美国 | 笑剧 | 科幻 | 2020 | 索尼克 | 游戏

简  介  

  改编自世嘉公司出品的风行全球的电子游戏。电影报告了具有音速奔驰才能的刺猬索尼克在地球上展开新生活的故事。索尼克和他的新朋友汤姆(詹姆斯·麦斯登 饰)联手庇护地球,阻止邪恶的蛋头博士(金·凯瑞 饰)统治天下的计划。这部合适百口旁观的电影还约请了迪卡·桑普特参演,本·施瓦茨为索尼克配音。

  1. Video
  2. ID                                       : 1
  3. Format                                   : HEVC
  4. Format/Info                              : High Efficiency Video Coding
  5. Format profile                           : Main 10@L5.1@High
  6. HDR format                               : SMPTE ST 2086, HDR10 compatible
  7. Codec ID                                 : V_MPEGH/ISO/HEVC
  8. Duration                                 : 1 h 38 min
  9. Bit rate                                 : 10.6 Mb/s
  10. Width                                    : 3 840 pixels
  11. Height                                   : 1 608 pixels
  12. Display aspect ratio                     : 2.40:1
  13. Frame rate mode                          : Constant
  14. Frame rate                               : 23.976 (24000/1001/45165) FPS
  15. Color space                              : YUV
  16. Chroma subsampling                       : 4:2:0 (Type 2)
  17. Bit depth                                : 10 bits
  18. Bits/(Pixel*Frame)                       : 0.071
  19. Stream size                              : 7.29 GiB (64%)
  20. Writing library                          : x265 3.3+21-6bb2d88029c2:[Windows][GCC 10.0.1][64 bit] 10bit
  21. Encoding settings                        : cpuid=1176575 / frame-threads=5 / numa-pools=36 / wpp / no-pmode / no-pme / no-psnr / no-ssim / log-level=2 / input-csp=1 / input-res=3840x1608 / interlace=0 / total-frames=142247 / level-idc=51 / high-tier=1 / uhd-bd=0 / ref=4 / no-allow-non-conformance / repeat-headers / annexb / aud / hrd / info / hash=0 / no-temporal-layers / open-gop / min-keyint=23 / keyint=250 / gop-lookahead=0 / bframes=4 / b-adapt=2 / b-pyramid / bframe-bias=0 / rc-lookahead=25 / lookahead-slices=4 / scenecut=40 / hist-scenecut=0 / radl=0 / no-splice / no-intra-refresh / ctu=64 / min-cu-size=8 / rect / no-amp / max-tu-size=32 / tu-inter-depth=1 / tu-intra-depth=1 / limit-tu=0 / rdoq-level=2 / dynamic-rd=0.00 / no-ssim-rd / signhide / no-tskip / nr-intra=0 / nr-inter=0 / no-constrained-intra / strong-intra-smoothing / max-merge=3 / limit-refs=3 / limit-modes / me=3 / subme=3 / merange=57 / temporal-mvp / no-frame-dup / no-hme / weightp / no-weightb / no-analyze-src-pics / deblock=-3:-3 / no-sao / no-sao-non-deblock / rd=4 / selective-sao=0 / no-early-skip / rskip / no-fast-intra / no-tskip-fast / no-cu-lossless / no-b-intra / no-splitrd-skip / rdpenalty=0 / psy-rd=2.00 / psy-rdoq=1.00 / no-rd-refine / no-lossless / cbqpoffs=0 / crqpoffs=0 / rc=crf / crf=14.0 / qcomp=0.60 / qpstep=4 / stats-write=0 / stats-read=0 / vbv-maxrate=160000 / vbv-bufsize=160000 / vbv-init=0.9 / crf-max=0.0 / crf-min=0.0 / ipratio=1.40 / pbratio=1.30 / aq-mode=2 / aq-strength=1.00 / cutree / zone-count=0 / no-strict-cbr / qg-size=32 / no-rc-grain / qpmax=69 / qpmin=0 / no-const-vbv / sar=1 / overscan=0 / videoformat=5 / range=0 / colorprim=9 / transfer=16 / colormatrix=9 / chromaloc=1 / chromaloc-top=2 / chromaloc-bottom=2 / display-window=0 / master-display=G(13250,34500)B(7500,3000)R(34000,16000)WP(15635,16450)L(40000000,50) / cll=698,204 / min-luma=0 / max-luma=1023 / log2-max-poc-lsb=8 / vui-timing-info / vui-hrd-info / slices=1 / no-opt-qp-pps / no-opt-ref-list-length-pps / no-multi-pass-opt-rps / scenecut-bias=0.05 / hist-threshold=0.01 / no-opt-cu-delta-qp / no-aq-motion / hdr10 / hdr10-opt / no-dhdr10-opt / no-idr-recovery-sei / analysis-reuse-level=0 / analysis-save-reuse-level=0 / analysis-load-reuse-level=0 / scale-factor=0 / refine-intra=0 / refine-inter=0 / refine-mv=1 / refine-ctu-distortion=0 / no-limit-sao / ctu-info=0 / no-lowpass-dct / refine-analysis-type=0 / copy-pic=1 / max-ausize-factor=1.0 / no-dynamic-refine / no-single-sei / no-hevc-aq / no-svt / no-field / qp-adaptation-range=1.00 / no-scenecut-aware-qpconformance-window-offsets / right=0 / bottom=0 / decoder-max-rate=0
  22. Default                                  : Yes
  23. Forced                                   : No
  24. Color range                              : Limited
  25. Color primaries                          : BT.2020
  26. Transfer characteristics                 : PQ
  27. Matrix coefficients                      : BT.2020 non-constant
  28. Mastering display color primaries        : Display P3
  29. Mastering display luminance              : min: 0.0050 cd/m2, max: 4000 cd/m2
  30. Maximum Content Light Level              : 698 cd/m2
  31. Maximum Frame-Average Light Level        : 204 cd/m2

  32. Audio #1
  33. ID                                       : 2
  34. Format                                   : MLP FBA 16-ch
  35. Format/Info                              : Meridian Lossless Packing FBA with 16-channel presentation
  36. Commercial name                          : Dolby TrueHD with Dolby Atmos
  37. Codec ID                                 : A_TRUEHD
  38. Duration                                 : 1 h 38 min
  39. Bit rate mode                            : Variable
  40. Bit rate                                 : 4 434 kb/s
  41. Maximum bit rate                         : 7 872 kb/s
  42. Channel(s)                               : 8 channels
  43. Channel layout                           : L R C LFE Ls Rs Lb Rb
  44. Sampling rate                            : 48.0 kHz
  45. Frame rate                               : 1 200.000 FPS (40 SPF)
  46. Compression mode                         : Lossless
  47. Stream size                              : 3.06 GiB (27%)
  48. Language                                 : English
  49. Default                                  : Yes
  50. Forced                                   : No
  51. Number of dynamic objects                : 11
  52. Bed channel count                        : 1 channel
  53. Bed channel configuration                : LFE

  54. Audio #2
  55. ID                                       : 3
  56. Format                                   : AC-3
  57. Format/Info                              : Audio Coding 3
  58. Commercial name                          : Dolby Digital
  59. Codec ID                                 : A_AC3
  60. Duration                                 : 1 h 38 min
  61. Bit rate mode                            : Constant
  62. Bit rate                                 : 640 kb/s
  63. Channel(s)                               : 6 channels
  64. Channel layout                           : L R C LFE Ls Rs
  65. Sampling rate                            : 48.0 kHz
  66. Frame rate                               : 31.250 FPS (1536 SPF)
  67. Bit depth                                : 16 bits
  68. Compression mode                         : Lossy
  69. Stream size                              : 453 MiB (4%)
  70. Language                                 : English
  71. Service kind                             : Complete Main
  72. Default                                  : No
  73. Forced                                   : No

  74. Audio #3
  75. ID                                       : 4
  76. Format                                   : AAC LC
  77. Format/Info                              : Advanced Audio Codec Low Complexity
  78. Codec ID                                 : A_AAC-2
  79. Duration                                 : 1 h 38 min
  80. Bit rate                                 : 116 kb/s
  81. Channel(s)                               : 2 channels
  82. Channel layout                           : L R
  83. Sampling rate                            : 48.0 kHz
  84. Frame rate                               : 46.875 FPS (1024 SPF)
  85. Compression mode                         : Lossy
  86. Delay relative to video                  : 9 ms
  87. Stream size                              : 81.7 MiB (1%)
  88. Title                                    : Commentary
  89. Language                                 : English
  90. Default                                  : No
  91. Forced                                   : No

  92. Text #1
  93. ID                                       : 5
  94. Format                                   : PGS
  95. Muxing mode                              : zlib
  96. Codec ID                                 : S_HDMV/PGS
  97. Codec ID/Info                            : Picture based subtitle format used on BDs/HD-DVDs
  98. Duration                                 : 1 h 31 min
  99. Bit rate                                 : 45.2 kb/s
  100. Count of elements                        : 2564
  101. Stream size                              : 29.6 MiB (0%)
  102. Title                                    : English
  103. Language                                 : English
  104. Default                                  : No
  105. Forced                                   : No

  106. Text #2
  107. ID                                       : 6
  108. Format                                   : PGS
  109. Muxing mode                              : zlib
  110. Codec ID                                 : S_HDMV/PGS
  111. Codec ID/Info                            : Picture based subtitle format used on BDs/HD-DVDs
  112. Duration                                 : 1 h 32 min
  113. Bit rate                                 : 51.8 kb/s
  114. Count of elements                        : 3184
  115. Stream size                              : 34.3 MiB (0%)
  116. Title                                    : English SDH
  117. Language                                 : English
  118. Default                                  : No
  119. Forced                                   : No

  120. Text #3
  121. ID                                       : 7
  122. Format                                   : PGS
  123. Muxing mode                              : zlib
  124. Codec ID                                 : S_HDMV/PGS
  125. Codec ID/Info                            : Picture based subtitle format used on BDs/HD-DVDs
  126. Duration                                 : 1 h 37 min
  127. Bit rate                                 : 47.9 kb/s
  128. Count of elements                        : 2614
  129. Stream size                              : 33.5 MiB (0%)
  130. Title                                    : Malay
  131. Language                                 : Malay
  132. Default                                  : No
  133. Forced                                   : No

  134. Text #4
  135. ID                                       : 8
  136. Format                                   : PGS
  137. Muxing mode                              : zlib
  138. Codec ID                                 : S_HDMV/PGS
  139. Codec ID/Info                            : Picture based subtitle format used on BDs/HD-DVDs
  140. Duration                                 : 1 h 37 min
  141. Bit rate                                 : 32.0 kb/s
  142. Count of elements                        : 2588
  143. Stream size                              : 22.3 MiB (0%)
  144. Title                                    : Chinese
  145. Language                                 : Chinese
  146. Default                                  : No
  147. Forced                                   : No

  148. Text #5
  149. ID                                       : 9
  150. Format                                   : PGS
  151. Muxing mode                              : zlib
  152. Codec ID                                 : S_HDMV/PGS
  153. Codec ID/Info                            : Picture based subtitle format used on BDs/HD-DVDs
  154. Duration                                 : 1 h 37 min
  155. Bit rate                                 : 36.4 kb/s
  156. Count of elements                        : 2540
  157. Stream size                              : 25.4 MiB (0%)
  158. Title                                    : Czech
  159. Language                                 : Czech
  160. Default                                  : No
  161. Forced                                   : No

  162. Text #6
  163. ID                                       : 10
  164. Format                                   : PGS
  165. Muxing mode                              : zlib
  166. Codec ID                                 : S_HDMV/PGS
  167. Codec ID/Info                            : Picture based subtitle format used on BDs/HD-DVDs
  168. Duration                                 : 1 h 37 min
  169. Bit rate                                 : 36.0 kb/s
  170. Count of elements                        : 2512
  171. Stream size                              : 25.1 MiB (0%)
  172. Title                                    : Danish
  173. Language                                 : Danish
  174. Default                                  : No
  175. Forced                                   : No

  176. Text #7
  177. ID                                       : 11
  178. Format                                   : PGS
  179. Muxing mode                              : zlib
  180. Codec ID                                 : S_HDMV/PGS
  181. Codec ID/Info                            : Picture based subtitle format used on BDs/HD-DVDs
  182. Duration                                 : 1 h 37 min
  183. Bit rate                                 : 41.7 kb/s
  184. Count of elements                        : 2494
  185. Stream size                              : 29.1 MiB (0%)
  186. Title                                    : German
  187. Language                                 : German
  188. Default                                  : No
  189. Forced                                   : No

  190. Text #8
  191. ID                                       : 12
  192. Format                                   : PGS
  193. Muxing mode                              : zlib
  194. Codec ID                                 : S_HDMV/PGS
  195. Codec ID/Info                            : Picture based subtitle format used on BDs/HD-DVDs
  196. Duration                                 : 1 h 37 min
  197. Bit rate                                 : 40.9 kb/s
  198. Count of elements                        : 2252
  199. Stream size                              : 28.5 MiB (0%)
  200. Title                                    : Greek
  201. Language                                 : Greek
  202. Default                                  : No
  203. Forced                                   : No

  204. Text #9
  205. ID                                       : 13
  206. Format                                   : PGS
  207. Muxing mode                              : zlib
  208. Codec ID                                 : S_HDMV/PGS
  209. Codec ID/Info                            : Picture based subtitle format used on BDs/HD-DVDs
  210. Duration                                 : 1 h 37 min
  211. Bit rate                                 : 38.6 kb/s
  212. Count of elements                        : 2528
  213. Stream size                              : 26.9 MiB (0%)
  214. Title                                    : Spanish
  215. Language                                 : Spanish
  216. Default                                  : No
  217. Forced                                   : No

  218. Text #10
  219. ID                                       : 14
  220. Format                                   : PGS
  221. Muxing mode                              : zlib
  222. Codec ID                                 : S_HDMV/PGS
  223. Codec ID/Info                            : Picture based subtitle format used on BDs/HD-DVDs
  224. Duration                                 : 1 h 37 min
  225. Bit rate                                 : 40.7 kb/s
  226. Count of elements                        : 2618
  227. Stream size                              : 28.4 MiB (0%)
  228. Title                                    : Spanish
  229. Language                                 : Spanish
  230. Default                                  : No
  231. Forced                                   : No

  232. Text #11
  233. ID                                       : 15
  234. Format                                   : PGS
  235. Muxing mode                              : zlib
  236. Codec ID                                 : S_HDMV/PGS
  237. Codec ID/Info                            : Picture based subtitle format used on BDs/HD-DVDs
  238. Duration                                 : 1 h 37 min
  239. Bit rate                                 : 32.9 kb/s
  240. Count of elements                        : 2468
  241. Stream size                              : 23.0 MiB (0%)
  242. Title                                    : French
  243. Language                                 : French
  244. Default                                  : No
  245. Forced                                   : No

  246. Text #12
  247. ID                                       : 16
  248. Format                                   : PGS
  249. Muxing mode                              : zlib
  250. Codec ID                                 : S_HDMV/PGS
  251. Codec ID/Info                            : Picture based subtitle format used on BDs/HD-DVDs
  252. Duration                                 : 1 h 37 min
  253. Bit rate                                 : 44.1 kb/s
  254. Count of elements                        : 2594
  255. Stream size                              : 30.8 MiB (0%)
  256. Title                                    : French
  257. Language                                 : French
  258. Default                                  : No
  259. Forced                                   : No

  260. Text #13
  261. ID                                       : 17
  262. Format                                   : PGS
  263. Muxing mode                              : zlib
  264. Codec ID                                 : S_HDMV/PGS
  265. Codec ID/Info                            : Picture based subtitle format used on BDs/HD-DVDs
  266. Duration                                 : 1 h 37 min
  267. Bit rate                                 : 39.2 kb/s
  268. Count of elements                        : 2572
  269. Stream size                              : 27.4 MiB (0%)
  270. Title                                    : Italian
  271. Language                                 : Italian
  272. Default                                  : No
  273. Forced                                   : No

  274. Text #14
  275. ID                                       : 18
  276. Format                                   : PGS
  277. Muxing mode                              : zlib
  278. Codec ID                                 : S_HDMV/PGS
  279. Codec ID/Info                            : Picture based subtitle format used on BDs/HD-DVDs
  280. Duration                                 : 1 h 31 min
  281. Bit rate                                 : 26.5 kb/s
  282. Count of elements                        : 2410
  283. Stream size                              : 17.4 MiB (0%)
  284. Title                                    : Japanese
  285. Language                                 : Japanese
  286. Default                                  : No
  287. Forced                                   : No

  288. Text #15
  289. ID                                       : 19
  290. Format                                   : PGS
  291. Muxing mode                              : zlib
  292. Codec ID                                 : S_HDMV/PGS
  293. Codec ID/Info                            : Picture based subtitle format used on BDs/HD-DVDs
  294. Duration                                 : 1 h 37 min
  295. Bit rate                                 : 23.6 kb/s
  296. Count of elements                        : 2630
  297. Stream size                              : 16.5 MiB (0%)
  298. Title                                    : Korean
  299. Language                                 : Korean
  300. Default                                  : No
  301. Forced                                   : No

  302. Text #16
  303. ID                                       : 20
  304. Format                                   : PGS
  305. Muxing mode                              : zlib
  306. Codec ID                                 : S_HDMV/PGS
  307. Codec ID/Info                            : Picture based subtitle format used on BDs/HD-DVDs
  308. Duration                                 : 1 h 37 min
  309. Bit rate                                 : 30.0 kb/s
  310. Count of elements                        : 2624
  311. Stream size                              : 20.9 MiB (0%)
  312. Title                                    : Chinese
  313. Language                                 : Chinese
  314. Default                                  : No
  315. Forced                                   : No

  316. Text #17
  317. ID                                       : 21
  318. Format                                   : PGS
  319. Muxing mode                              : zlib
  320. Codec ID                                 : S_HDMV/PGS
  321. Codec ID/Info                            : Picture based subtitle format used on BDs/HD-DVDs
  322. Duration                                 : 1 h 37 min
  323. Bit rate                                 : 34.5 kb/s
  324. Count of elements                        : 2466
  325. Stream size                              : 24.1 MiB (0%)
  326. Title                                    : Dutch
  327. Language                                 : Dutch
  328. Default                                  : No
  329. Forced                                   : No

  330. Text #18
  331. ID                                       : 22
  332. Format                                   : PGS
  333. Muxing mode                              : zlib
  334. Codec ID                                 : S_HDMV/PGS
  335. Codec ID/Info                            : Picture based subtitle format used on BDs/HD-DVDs
  336. Duration                                 : 1 h 37 min
  337. Bit rate                                 : 34.5 kb/s
  338. Count of elements                        : 2584
  339. Stream size                              : 24.1 MiB (0%)
  340. Title                                    : Norwegian
  341. Language                                 : Norwegian
  342. Default                                  : No
  343. Forced                                   : No

  344. Text #19
  345. ID                                       : 23
  346. Format                                   : PGS
  347. Muxing mode                              : zlib
  348. Codec ID                                 : S_HDMV/PGS
  349. Codec ID/Info                            : Picture based subtitle format used on BDs/HD-DVDs
  350. Duration                                 : 1 h 37 min
  351. Bit rate                                 : 38.2 kb/s
  352. Count of elements                        : 2588
  353. Stream size                              : 26.7 MiB (0%)
  354. Title                                    : Russian
  355. Language                                 : Russian
  356. Default                                  : No
  357. Forced                                   : No

  358. Text #20
  359. ID                                       : 24
  360. Format                                   : PGS
  361. Muxing mode                              : zlib
  362. Codec ID                                 : S_HDMV/PGS
  363. Codec ID/Info                            : Picture based subtitle format used on BDs/HD-DVDs
  364. Duration                                 : 1 h 37 min
  365. Bit rate                                 : 37.2 kb/s
  366. Count of elements                        : 2572
  367. Stream size                              : 26.0 MiB (0%)
  368. Title                                    : Romanian
  369. Language                                 : Romanian
  370. Default                                  : No
  371. Forced                                   : No

  372. Text #21
  373. ID                                       : 25
  374. Format                                   : PGS
  375. Muxing mode                              : zlib
  376. Codec ID                                 : S_HDMV/PGS
  377. Codec ID/Info                            : Picture based subtitle format used on BDs/HD-DVDs
  378. Duration                                 : 1 h 37 min
  379. Bit rate                                 : 36.8 kb/s
  380. Count of elements                        : 2618
  381. Stream size                              : 25.7 MiB (0%)
  382. Title                                    : Finnish
  383. Language                                 : Finnish
  384. Default                                  : No
  385. Forced                                   : No

  386. Text #22
  387. ID                                       : 26
  388. Format                                   : PGS
  389. Muxing mode                              : zlib
  390. Codec ID                                 : S_HDMV/PGS
  391. Codec ID/Info                            : Picture based subtitle format used on BDs/HD-DVDs
  392. Duration                                 : 1 h 37 min
  393. Bit rate                                 : 36.1 kb/s
  394. Count of elements                        : 2578
  395. Stream size                              : 25.2 MiB (0%)
  396. Title                                    : Swedish
  397. Language                                 : Swedish
  398. Default                                  : No
  399. Forced                                   : No

  400. Text #23
  401. ID                                       : 27
  402. Format                                   : PGS
  403. Muxing mode                              : zlib
  404. Codec ID                                 : S_HDMV/PGS
  405. Codec ID/Info                            : Picture based subtitle format used on BDs/HD-DVDs
  406. Duration                                 : 1 h 37 min
  407. Bit rate                                 : 33.5 kb/s
  408. Count of elements                        : 2630
  409. Stream size                              : 23.4 MiB (0%)
  410. Title                                    : Thai
  411. Language                                 : Thai
  412. Default                                  : No
  413. Forced                                   : No

  414. Text #24
  415. ID                                       : 28
  416. Format                                   : PGS
  417. Muxing mode                              : zlib
  418. Codec ID                                 : S_HDMV/PGS
  419. Codec ID/Info                            : Picture based subtitle format used on BDs/HD-DVDs
  420. Duration                                 : 1 h 37 min
  421. Bit rate                                 : 42.7 kb/s
  422. Count of elements                        : 2588
  423. Stream size                              : 29.8 MiB (0%)
  424. Title                                    : Turkish
  425. Language                                 : Turkish
  426. Default                                  : No
  427. Forced                                   : No

  428. Text #25
  429. ID                                       : 29
  430. Format                                   : PGS
  431. Muxing mode                              : zlib
  432. Codec ID                                 : S_HDMV/PGS
  433. Codec ID/Info                            : Picture based subtitle format used on BDs/HD-DVDs
  434. Duration                                 : 1 h 38 min
  435. Bit rate                                 : 80.3 kb/s
  436. Count of elements                        : 4008
  437. Stream size                              : 56.6 MiB (0%)
  438. Title                                    : English Commentary
  439. Language                                 : English
  440. Default                                  : No
  441. Forced                                   : No

  442. Text #26
  443. ID                                       : 30
  444. Format                                   : PGS
  445. Muxing mode                              : zlib
  446. Codec ID                                 : S_HDMV/PGS
  447. Codec ID/Info                            : Picture based subtitle format used on BDs/HD-DVDs
  448. Duration                                 : 1 h 38 min
  449. Bit rate                                 : 66.4 kb/s
  450. Count of elements                        : 3899
  451. Stream size                              : 46.9 MiB (0%)
  452. Title                                    : German
  453. Language                                 : German
  454. Default                                  : No
  455. Forced                                   : No

  456. Text #27
  457. ID                                       : 31
  458. Format                                   : PGS
  459. Muxing mode                              : zlib
  460. Codec ID                                 : S_HDMV/PGS
  461. Codec ID/Info                            : Picture based subtitle format used on BDs/HD-DVDs
  462. Duration                                 : 1 h 38 min
  463. Bit rate                                 : 71.0 kb/s
  464. Count of elements                        : 3938
  465. Stream size                              : 50.2 MiB (0%)
  466. Title                                    : Spanish
  467. Language                                 : Spanish
  468. Default                                  : No
  469. Forced                                   : No

  470. Text #28
  471. ID                                       : 32
  472. Format                                   : PGS
  473. Muxing mode                              : zlib
  474. Codec ID                                 : S_HDMV/PGS
  475. Codec ID/Info                            : Picture based subtitle format used on BDs/HD-DVDs
  476. Duration                                 : 1 h 38 min
  477. Bit rate                                 : 67.1 kb/s
  478. Count of elements                        : 4004
  479. Stream size                              : 47.4 MiB (0%)
  480. Title                                    : Spanish
  481. Language                                 : Spanish
  482. Default                                  : No
  483. Forced                                   : No

  484. Text #29
  485. ID                                       : 33
  486. Format                                   : PGS
  487. Muxing mode                              : zlib
  488. Codec ID                                 : S_HDMV/PGS
  489. Codec ID/Info                            : Picture based subtitle format used on BDs/HD-DVDs
  490. Duration                                 : 1 h 38 min
  491. Bit rate                                 : 66.1 kb/s
  492. Count of elements                        : 3956
  493. Stream size                              : 46.7 MiB (0%)
  494. Title                                    : French
  495. Language                                 : French
  496. Default                                  : No
  497. Forced                                   : No

  498. Text #30
  499. ID                                       : 34
  500. Format                                   : PGS
  501. Muxing mode                              : zlib
  502. Codec ID                                 : S_HDMV/PGS
  503. Codec ID/Info                            : Picture based subtitle format used on BDs/HD-DVDs
  504. Duration                                 : 1 h 38 min
  505. Bit rate                                 : 78.0 kb/s
  506. Count of elements                        : 3988
  507. Stream size                              : 55.1 MiB (0%)
  508. Title                                    : French
  509. Language                                 : French
  510. Default                                  : No
  511. Forced                                   : No

  512. Text #31
  513. ID                                       : 35
  514. Format                                   : PGS
  515. Muxing mode                              : zlib
  516. Codec ID                                 : S_HDMV/PGS
  517. Codec ID/Info                            : Picture based subtitle format used on BDs/HD-DVDs
  518. Duration                                 : 1 h 38 min
  519. Bit rate                                 : 64.8 kb/s
  520. Count of elements                        : 3992
  521. Stream size                              : 45.8 MiB (0%)
  522. Title                                    : Italian
  523. Language                                 : Italian
  524. Default                                  : No
  525. Forced                                   : No

  526. Text #32
  527. ID                                       : 36
  528. Format                                   : PGS
  529. Muxing mode                              : zlib
  530. Codec ID                                 : S_HDMV/PGS
  531. Codec ID/Info                            : Picture based subtitle format used on BDs/HD-DVDs
  532. Duration                                 : 1 h 38 min
  533. Bit rate                                 : 44.8 kb/s
  534. Count of elements                        : 3286
  535. Stream size                              : 31.6 MiB (0%)
  536. Title                                    : Japanese
  537. Language                                 : Japanese
  538. Default                                  : No
  539. Forced                                   : No

  540. Menu
  541. 00:00:00.000                             : en:Chapter 01
  542. 00:03:51.857                             : en:Chapter 02
  543. 00:09:32.989                             : en:Chapter 03
  544. 00:12:45.974                             : en:Chapter 04
  545. 00:18:09.422                             : en:Chapter 05
  546. 00:22:20.339                             : en:Chapter 06
  547. 00:27:33.694                             : en:Chapter 07
  548. 00:35:09.316                             : en:Chapter 08
  549. 00:41:37.328                             : en:Chapter 09
  550. 00:51:24.623                             : en:Chapter 10
  551. 01:01:04.828                             : en:Chapter 11
  552. 01:04:38.208                             : en:Chapter 12
  553. 01:10:20.341                             : en:Chapter 13
  554. 01:18:54.021                             : en:Chapter 14
  555. 01:25:38.717                             : en:Chapter 15
  556. 01:30:27.297                             : en:Chapter 16
复制代码
095823js44z499iu0izid1.png 095823f4brbwrcucrbbuzb.png 095823pnuzfoluhhyzq22d.png




本帖隐藏的下载地址需要VIP会员才可阅读,您需要升级才可阅读,点击这里升级VIP

回复

使用道具 举报

懒得打字嘛,点击右侧快捷回复 【右侧内容,后台自定义】
您需要登录后才可以回帖 登录 | 立即注册

本版积分规则

Archiver|手机版|小黑屋| 中国高清网 ( ICP备17007870号-2 ) |网站地图 

GMT+8, 2020-5-28 15:18 , Processed in 0.238411 second(s), 39 queries .

Powered by HDchina X3.4

Copyright 2017-2019©HDchina.All right reserved

返回顶部 联系我们