查看: 56|回复: 0

[剧情片] 夜班服务员/夜班职员 The.Night.Clerk.2020.720p.BluRay.x264-EiDER 3.82GB

[复制链接]

 成长值: 5460

级别:资源管理组

注册时间
2017-10-20
最后登录
2020-5-28
听众
1
收听
0
主题
96235
蓝光币
152134 枚
贡献
20613 点
发表于 7 天前 | 显示全部楼层 |阅读模式
夜班办事员/夜班职员 The.Night.Clerk.2020.720p.BluRay.x264-EiDER 3.82GB-1.png
2 a9 u3 q" W, L6 V% g# F) Y5 [" n2 r* j+ T  e/ W: m3 {
译  名 夜班办事员 / 夜班职员 / 夜间接待员
( l# A# U- p3 ]/ u2 M; e片  名 The Night Clerk( M4 R$ d  M6 n3 ~
年  代 2020$ U. P! R. K0 g" T
产  地 美国
: t: e3 T# N7 `) d. V4 N9 }; S2 P6 s类  别 剧情 / 犯罪
4 {9 h# [9 Q, W2 e. s& @6 x语  言 英语, L; t. L" }1 ~' t6 J1 v
上映日期 2020-02-21(美国)
$ Y2 }2 ]8 h* t0 O0 W: E  @8 L9 h8 gIMDb评分  5.2/10 from 2382 users
+ c& l) l9 @) l( x* zIMDb链接  https://www.imdb.com/title/tt7979142' J6 w  t- m2 v6 S
豆瓣评分 5.5/10 from 2062 users
0 q6 B' I3 ^! k" V2 E5 ~豆瓣链接 https://movie.douban.com/subject/30142414/
; C- C8 Q( u' Z4 p+ x. |- w5 v. X片  长 90分钟
+ m: \( R: E! O5 |2 ~3 d4 H0 j; \导  演 迈克尔·克里斯托弗 Michael Cristofer/ R3 _% I2 _0 }. C4 P/ ~5 [
编  剧 迈克尔·克里斯托弗 Michael Cristofer4 e  Q7 \' h# u
主  演 泰伊·谢里丹 Tye Sheridan
# g. \$ q# C2 A+ H- t3 Z+ F* _4 y       安娜·德·阿玛斯 Ana de Armas0 c0 ]1 i& _! K& t8 r4 H
       海伦·亨特 Helen Hunt
  v5 T% B3 g7 l& n$ I$ u; \       约翰·雷吉扎莫 John Leguizamo
6 |' o. W: {# x9 A& G  Z" M. S" x       乔纳森·斯卡奇 Johnathon Schaech5 P* q9 q" A' \7 ?& V( ~, j! B* q
       雅克·格雷 Jacque Gray
' _/ \, b) Q$ X7 C$ q0 i3 X       Cindy Perez/ E  d" d2 y4 d: h6 A0 i5 R
       D.L. Walker
5 u- I$ c9 x* ]       Walter Platz/ m9 a; ?9 l' k4 T+ _1 V. r4 v
       Pam Eichner+ Y7 q8 p9 S; ~% a" R
       Ischa Bee. I8 P8 ~7 j+ L# ^1 t) R
       Stacey Ann Turner/ E: ?" y* J$ o8 S$ T3 A
       Adam Colvin  t6 a  _% S) p2 `6 k
9 Y. I) c! z0 B7 x% {9 U5 `
* C7 \/ @/ e' ?% H$ ^; N. ^
标  签 犯罪 | 美国 | 悬疑 | 剧情 | 2020 | 安娜·德·阿玛斯 | 美国电影 | 泰伊·谢里丹) B5 L6 u* r5 [& H

; X3 n0 q4 O* g1 G( U( w1 O简  介  ( _1 y4 V5 w* K+ C. s7 l' o& ?

' u1 l% A6 o# g- a  得了自闭症的酒店夜班办事员巴特(泰伊·谢里丹饰)为进步交际才能,他操纵监控记载客人一举一动。某天一位女客人被杀戮后,警方起头思疑他。但是杀手还在行动,他既要面临警方又要找到真凶。
! i: m' v- }, r' f
  1. Video
    / t2 r$ l  Q: b% |* [, k
  2. ID                                       : 1& [& I! t$ w6 j( N5 b& e7 _. O' o5 k
  3. Format                                   : AVC
    & |; {( h0 R* ?4 y( ~
  4. Format/Info                              : Advanced Video Codec
    1 J) Z7 L3 `& {$ y$ p8 p
  5. Format profile                           : High@L49 U) e' N# e, ~) r+ S5 L2 F
  6. Format settings                          : CABAC / 8 Ref Frames
    " L1 j( B+ @; O
  7. Format settings, CABAC                   : Yes# B+ M0 g, L3 c. D$ I/ i3 s  q2 Z
  8. Format settings, Reference frames        : 8 frames
    - Q4 c, v" w2 i7 E2 @) e! r
  9. Codec ID                                 : V_MPEG4/ISO/AVC: |% \! |4 Z( D( G, Q9 _; C
  10. Duration                                 : 1 h 30 min6 Q8 e# X8 B6 A: K8 ]7 u
  11. Bit rate                                 : 5 418 kb/s
    ' [& e, s6 y/ t; t2 z
  12. Width                                    : 1 280 pixels$ R( D0 s* c* I. P) q6 U) u
  13. Height                                   : 694 pixels6 Y7 @+ p4 M6 n3 G
  14. Display aspect ratio                     : 1.85:10 c) [% w! R9 a( }9 c# T+ Q% Y5 S- |9 }
  15. Frame rate mode                          : Constant
    : U+ b0 \. i& A
  16. Frame rate                               : 23.976 (24000/1001/189150) FPS6 {! w; t' k3 \5 m
  17. Color space                              : YUV% ^' X+ I( _/ Y6 T
  18. Chroma subsampling                       : 4:2:0
    1 I( [8 [4 P" y: l9 y( W
  19. Bit depth                                : 8 bits
    * O# [- b0 N: F2 Z! i1 ?! _' m
  20. Scan type                                : Progressive9 _. D0 f) |( `% v( B
  21. Bits/(Pixel*Frame)                       : 0.254
    0 }' x. ~8 P1 r3 K
  22. Stream size                              : 3.41 GiB (89%): f% Y; s  V4 ]4 i* a# p1 f
  23. Writing library                          : x264 core 160 r3000 33f9e14/ @; t0 N$ ?5 z* F' U8 h+ K7 M
  24. Encoding settings                        : cabac=1 / ref=8 / deblock=1:-3:-3 / analyse=0x3:0x133 / me=umh / subme=9 / psy=1 / psy_rd=1.00:0.00 / mixed_ref=1 / me_range=16 / chroma_me=1 / trellis=2 / 8x8dct=1 / cqm=0 / deadzone=21,11 / fast_pskip=0 / chroma_qp_offset=-2 / threads=18 / lookahead_threads=1 / sliced_threads=0 / nr=0 / decimate=0 / interlaced=0 / bluray_compat=0 / constrained_intra=0 / bframes=3 / b_pyramid=2 / b_adapt=2 / b_bias=0 / direct=3 / weightb=1 / open_gop=0 / weightp=2 / keyint=250 / keyint_min=24 / scenecut=40 / intra_refresh=0 / rc=crf / mbtree=0 / crf=17.7 / qcomp=0.60 / qpmin=0 / qpmax=69 / qpstep=4 / ip_ratio=1.40 / pb_ratio=1.30 / aq=3:0.80
    , h/ B9 q) J" V5 U9 n* p( H
  25. Default                                  : Yes
    4 }; f4 u% W+ `$ |( z$ J
  26. Forced                                   : No! ?" n- R: |$ d
  27. Color range                              : Limited
    4 I+ j; G0 H- R- @- y! h1 D+ L
  28. Matrix coefficients                      : BT.7095 R: e' i) U. E2 K+ y4 [6 _: B2 _

  29. 6 K' g) {, m9 m) n) h4 w8 X) j
  30. Audio! y2 Z; I  X: Y% q6 E8 {
  31. ID                                       : 2# c! b4 C# W4 y! E- h- ~* r
  32. Format                                   : AC-3
    ( R# X* q8 D8 n2 P8 K$ \
  33. Format/Info                              : Audio Coding 3
    2 C* A3 Z4 P% w" \* e
  34. Commercial name                          : Dolby Digital
    ' S5 s5 S6 ]- ^( `' {( i
  35. Codec ID                                 : A_AC3" j8 Y5 x; @! M$ L$ e; S5 D) P
  36. Duration                                 : 1 h 30 min9 b& R! K9 C  G% A! `( h5 s
  37. Bit rate mode                            : Constant
    ' x, t% T9 h  W" X$ A" r8 b. w! q
  38. Bit rate                                 : 640 kb/s
    ' @4 r0 {* V& U7 E
  39. Channel(s)                               : 6 channels
    7 A$ V" m4 P! x
  40. Channel layout                           : L R C LFE Ls Rs6 o8 C% i! o! W
  41. Sampling rate                            : 48.0 kHz% u1 E# ?. y7 Z& V
  42. Frame rate                               : 31.250 FPS (1536 SPF)
    1 U8 U; u1 n1 `) {
  43. Bit depth                                : 16 bits
    # @8 b' z, a5 \# K( b
  44. Compression mode                         : Lossy! ]5 N. N$ J! B9 g# @+ p
  45. Stream size                              : 413 MiB (11%)& z/ _' c. ]0 @! L
  46. Title                                    : AC-3 5.1
    $ m4 G$ ?! N; Z- Z: o
  47. Language                                 : English
    4 z+ X* G* Z' \3 `. B% C
  48. Service kind                             : Complete Main' c7 ~- J! W- D$ A( P+ M. K
  49. Default                                  : Yes
    & S! B5 a: @9 d2 _/ I' G
  50. Forced                                   : No" r' X8 U2 e/ F% k0 h. M0 Q
  51. 2 Y" H% g+ F8 H# O
  52. Text8 x4 K' s% ]% O$ {, a
  53. ID                                       : 3
    ( U/ ]) V+ M5 e( V/ q
  54. Format                                   : PGS
    # m3 c2 l, r; R* E4 Q3 |
  55. Muxing mode                              : zlib6 p- M; x4 h6 X, j. E
  56. Codec ID                                 : S_HDMV/PGS
    ) f  a  `  _5 k0 E7 o( W" M
  57. Codec ID/Info                            : Picture based subtitle format used on BDs/HD-DVDs
    6 R9 Q: u- j* t4 N1 x/ d1 z
  58. Duration                                 : 1 h 29 min
    2 A  g5 [4 d  B2 E; ^3 Z
  59. Bit rate                                 : 25.4 kb/s
    1 n* M, d" e" N. f: Z7 |' s- Z; E& g
  60. Count of elements                        : 15386 a3 F- ]0 N1 j& b3 C/ a' P3 _2 I( L
  61. Stream size                              : 16.2 MiB (0%)1 f2 L7 G5 p+ M& c6 Z# ]
  62. Title                                    : English SDH
    4 P3 r2 D4 L0 I  h
  63. Language                                 : English
    0 `. F0 [* s# M! o
  64. Default                                  : No, L+ G; h5 j/ m4 I
  65. Forced                                   : No
    " u) x  f; I/ x5 B4 k
  66. ; t. O& h' E2 k( d0 o
  67. Menu
    4 Z+ I, V' F) t. M; [) ^4 p
  68. 00:00:00.000                             : en:Chapter 01
    3 V0 [% B9 M9 n
  69. 00:11:40.199                             : en:Chapter 02
    * _0 ^8 d) Z6 m' @8 e8 k
  70. 00:23:18.272                             : en:Chapter 03
    / m& Y; J  l# X, }
  71. 00:37:30.165                             : en:Chapter 04% |; ^* O+ _0 _
  72. 00:50:22.102                             : en:Chapter 05% |2 Q3 L* N% r1 O3 {- {
  73. 01:04:01.671                             : en:Chapter 06; }1 t8 H+ U: w
  74. 01:17:13.879                             : en:Chapter 07
    ; m2 Y& U/ _3 A9 I. W  j; f
  75. 01:26:14.169                             : en:Chapter 08
复制代码
) w3 _) G: Z" }/ M
夜班办事员/夜班职员 The.Night.Clerk.2020.720p.BluRay.x264-EiDER 3.82GB-2.png
! {! w& x' L" b/ J3 r
/ n  H; i5 p$ w5 U" b% n4 e/ p$ K! k+ }

+ I7 J: \* J- p( j; g1 W* p% y9 q0 X! h
+ O8 v' l/ o" S
9 U& o) o) V0 y. u
回复

使用道具 举报

懒得打字嘛,点击右侧快捷回复 【右侧内容,后台自定义】
您需要登录后才可以回帖 登录 | 立即注册

本版积分规则

Archiver|手机版|小黑屋| 中国高清网 ( ICP备17007870号-2 ) |网站地图 

GMT+8, 2020-5-28 19:33 , Processed in 0.145899 second(s), 39 queries .

Powered by HDchina X3.4

Copyright 2017-2019©HDchina.All right reserved

返回顶部 联系我们