查看: 24|回复: 0

[纪录片] 推销员/社会中坚 Salesman.1969.720p.BluRay.x264-NODLABS 7.00GB

[复制链接]

 成长值: 5460

级别:资源管理组

注册时间
2017-10-20
最后登录
2020-5-28
听众
1
收听
0
主题
96235
蓝光币
152126 枚
贡献
20613 点
发表于 7 天前 | 显示全部楼层 |阅读模式
倾销员/社会中坚 Salesman.1969.720p.BluRay.x264-NODLABS 7.00GB-1.png
: w4 m0 c, i# o3 q
% s6 o4 o' D+ r5 C; ?4 r译  名 倾销员 / 社会中坚
( a/ m  s0 Q: ^2 K* t: E片  名 Salesman
! K' h% p% I- ^3 n9 j( Q年  代 1969
* I9 c9 H: r2 E* H2 W2 R产  地 美国
+ m) [; C  ~3 C- L# |4 h类  别 记载片
5 V& p  f9 ]' ^' s4 X语  言 英语' B0 T, ^5 e- @8 F
上映日期 1969-04-17(美国)
! m+ ?5 ]$ b# z' z% ^: G% a0 HIMDb评分  7.8/10 from 4478 users
: R* `: a+ a  _IMDb链接  https://www.imdb.com/title/tt0064921
' V5 d, g5 \8 D豆瓣评分 7.8/10 from 1543 users6 F5 X" o1 x; Z& n# G8 \" q
豆瓣链接 https://movie.douban.com/subject/1395036/
, k& c/ r4 O2 g  I1 I# f片  长 85分钟
; S" `4 M* }. }. s5 W, V" m& U导  演 Albert Maysles / David Maysles / Charlotte Zwerin% y- E- x' g; q( X: ?6 B8 |8 p7 o
主  演 Paul Brennan
! ?- J- H% b8 h4 P7 s9 O" _       Charles McDevitt
* A8 |0 Q, I* w7 C& E, a       James Baker
) }* B0 ]. I) P& V       Raymond Martos+ J8 l& G7 f( v5 h' g

& U  D7 S0 ]: _; e* R* I/ V3 A* S
1 z9 L% `7 D, D5 }" r) W标  签 记载片 | 美国 | 梅索斯兄弟 | 美国电影 | 1960s | Maysles | documentary | 紀錄片! j) u' m. c: |. W9 |% J4 p  n

/ Q/ U& Z& J9 m5 U% r* \* g简  介  + Q0 N7 }1 r" n& e( l0 C' |: K9 C
+ R2 n9 U2 P% M2 o
  本片追踪四个“美中圣经公司”的销售代表在波士顿与佛罗里达销售地区工作的情形。保罗是本片的焦点,他挣扎于保存的两难地步,却一向布满悲观,应用各类或哄或骗的技能来倾销《圣经》。
0 I; z$ h. z* Y8 N1 n" y) |6 E
  1. Video
    ' W1 y/ V/ |2 U8 _
  2. ID                                       : 1
    4 C: g% G3 f+ c7 p5 R7 F
  3. Format                                   : AVC& f  z/ S- L6 m( v
  4. Format/Info                              : Advanced Video Codec
    2 ~3 o2 @7 H- d/ d& w
  5. Format profile                           : High@L4$ ^! J! |; S7 Y5 e, n0 z' D
  6. Format settings                          : CABAC / 8 Ref Frames
    " D2 D! \" Y& f2 A& L4 k$ L! c2 P
  7. Format settings, CABAC                   : Yes+ _$ W* `$ g8 k
  8. Format settings, Reference frames        : 8 frames  K/ _% ]$ p% h. F7 R! Z5 R
  9. Codec ID                                 : V_MPEG4/ISO/AVC5 ]4 d. L2 Y, a+ ^" F/ L6 B4 M
  10. Duration                                 : 1 h 31 min& q& r: n' q& j" N7 F" ~+ r
  11. Bit rate                                 : 10.2 Mb/s
    0 S0 k  r2 w8 n  x! _
  12. Width                                    : 960 pixels
    4 G' i/ R) _) T; J1 N+ N
  13. Height                                   : 720 pixels
    9 d7 ?0 q5 J  X5 U% o& }. V! {/ N
  14. Display aspect ratio                     : 4:3- F- j3 C$ X% x2 ]3 S+ J7 y
  15. Frame rate mode                          : Constant
    $ w# H# T& f  }) R; v( i
  16. Frame rate                               : 23.976 (24000/1001/189150) FPS
    * i8 m1 A0 N# W2 E2 Z
  17. Color space                              : YUV; N% Q( g8 a5 G, e/ d  o/ A8 L
  18. Chroma subsampling                       : 4:2:0
    : ]1 p3 {6 l3 g! ?' l
  19. Bit depth                                : 8 bits& g# n; H; x: X/ q
  20. Scan type                                : Progressive
    8 o4 m  P( u# U& ~) j& W
  21. Bits/(Pixel*Frame)                       : 0.6189 B' a/ H6 e6 d% i8 [! F
  22. Stream size                              : 6.54 GiB (93%)! m9 ?* j! j% k' D+ y
  23. Writing library                          : x264 core 160 r3000 33f9e14, h# m/ [9 H# q% w) I; j3 G
  24. Encoding settings                        : cabac=1 / ref=8 / deblock=1:-3:-3 / analyse=0x3:0x133 / me=umh / subme=9 / psy=1 / psy_rd=1.15:0.00 / mixed_ref=1 / me_range=24 / chroma_me=1 / trellis=2 / 8x8dct=1 / cqm=0 / deadzone=21,11 / fast_pskip=0 / chroma_qp_offset=-2 / threads=22 / lookahead_threads=1 / sliced_threads=0 / nr=0 / decimate=0 / interlaced=0 / bluray_compat=0 / constrained_intra=0 / bframes=3 / b_pyramid=2 / b_adapt=2 / b_bias=0 / direct=3 / weightb=1 / open_gop=0 / weightp=2 / keyint=250 / keyint_min=23 / scenecut=40 / intra_refresh=0 / rc=crf / mbtree=0 / crf=20.3 / qcomp=0.60 / qpmin=0 / qpmax=69 / qpstep=4 / ip_ratio=1.40 / pb_ratio=1.30 / aq=3:0.65
    % k* Z, O, P; v8 t
  25. Default                                  : Yes
    7 E/ \+ N' O& @% H
  26. Forced                                   : No8 B$ x6 u0 b; g$ b* g0 C4 z- x
  27. Color range                              : Limited
    0 |/ N5 }! i3 F1 g/ V2 k: K. s
  28. Matrix coefficients                      : BT.709
    0 E5 w# y4 w$ u7 i; |$ H

  29. " b# {8 [7 t1 K$ j
  30. Audio #1
    8 O6 m; c9 f& l
  31. ID                                       : 2
    % Z% {  U0 j2 `3 ~/ Y
  32. Format                                   : FLAC" K3 N! F2 d" o/ O3 v0 T- _
  33. Format/Info                              : Free Lossless Audio Codec. k& |0 p: w) ]: [7 A1 t" W* f3 A
  34. Codec ID                                 : A_FLAC; M4 M! w' S$ L7 C: w% |2 B' L
  35. Duration                                 : 1 h 31 min
    & P7 a& p! Q, Z: t, @
  36. Bit rate mode                            : Variable
    7 ~5 a, T) P* u+ K( C5 a" @
  37. Bit rate                                 : 636 kb/s. Z$ T6 I: \7 |' f  G/ N' j  j
  38. Channel(s)                               : 1 channel2 u  U: W, R& l9 ]+ ?
  39. Channel layout                           : C
    + [+ Q: \+ Q5 [/ i
  40. Sampling rate                            : 48.0 kHz
    ' X  t4 c6 F3 d: ?
  41. Frame rate                               : 11.719 FPS (4096 SPF)
    3 e/ ?! Z5 H% O, I) a
  42. Bit depth                                : 24 bits' D9 p# L6 ?& z' E4 ^% ^
  43. Compression mode                         : Lossless
    2 h! f# x6 A  R* i. \9 H
  44. Stream size                              : 415 MiB (6%)
    ; q$ `; w8 Q& X( Q) T
  45. Title                                    : Flac 1.0
    # m/ s! B4 |6 l) |  c: ^& f) I1 Y( e
  46. Writing library                          : libFLAC 1.2.1 (UTC 2007-09-17)
    * p$ F1 h8 ], K$ U4 B0 b/ A8 q
  47. Language                                 : English+ n0 L. i! o! D9 c7 ]
  48. Default                                  : Yes+ r* a: c8 R6 L* o. e* f2 B' u
  49. Forced                                   : No5 x0 K- g. p" L2 o: x
  50. * T( _6 F/ u0 C3 ]
  51. Audio #2
    ) J* Q2 b1 i3 X$ P7 a
  52. ID                                       : 6
    : N% W( T/ q+ _
  53. Format                                   : AAC LC
    3 s; _4 Q0 ~* S( o5 X
  54. Format/Info                              : Advanced Audio Codec Low Complexity
      a6 W& i4 u) }& V4 Y4 x0 ~
  55. Codec ID                                 : A_AAC-2
    & w, g/ {! v( I6 m: |4 P$ H
  56. Duration                                 : 1 h 31 min
    * J4 d2 V+ V+ r8 t/ J
  57. Bit rate                                 : 78.0 kb/s8 |5 U$ m& v4 y2 c3 p7 M% z( r! H
  58. Channel(s)                               : 1 channel5 \/ o; A. b+ w. ?
  59. Channel layout                           : C
    ) P* u5 E9 R9 {1 W8 ?) {0 Q
  60. Sampling rate                            : 48.0 kHz  ~0 V9 S0 y  @% C) s4 r
  61. Frame rate                               : 46.875 FPS (1024 SPF)
    ! ^( j; g9 @6 C( [6 H4 e. j
  62. Compression mode                         : Lossy
    * d8 S3 z2 u1 u9 c+ i  }( B
  63. Delay relative to video                  : 9 ms
    " z: b9 B9 b+ t( d$ \& [; m
  64. Stream size                              : 50.9 MiB (1%)2 H: k3 F* Z1 G% n! F
  65. Title                                    : Commentary featuring co-directors Albert Maysles and Charlotte Zwerin
    , d2 J6 w, {1 b1 O0 ?
  66. Language                                 : English
    : _* A* J5 b' d- Y- F. k
  67. Default                                  : No: G0 W- M8 E) B$ i, s1 G" G8 z
  68. Forced                                   : No! j' H4 N9 |" j+ `( I, }8 _" e; P, K
  69. + H" V% S; |7 D! P( F4 ]( z
  70. Text #1& C6 ^; V/ T- \' C5 b
  71. ID                                       : 3- }( M$ {* X% D3 o/ j
  72. Format                                   : UTF-8
    5 k' G2 n1 I+ E; W2 G0 d
  73. Codec ID                                 : S_TEXT/UTF8
    + R6 m6 P& m+ y5 N& B  e* R  |$ H; D
  74. Codec ID/Info                            : UTF-8 Plain Text
    - s. m3 ?" P; F, b+ B0 a, A
  75. Duration                                 : 1 h 29 min
    4 z3 [% {0 G/ y0 g6 v) F) d/ q
  76. Bit rate                                 : 100 b/s
    $ E+ s) q' H$ G& s1 z$ y
  77. Count of elements                        : 1510
    / U# `* v* }( D
  78. Stream size                              : 65.8 KiB (0%)
    / I( M: e3 f2 v) n5 A% c
  79. Title                                    : Stripped SRT
    6 W2 x5 H6 I* P
  80. Language                                 : English
    ' x, S5 {. L0 a% z, k( [, w
  81. Default                                  : No6 K. v% q1 m5 A: E) m
  82. Forced                                   : No4 b5 ~3 l( B# ~- p  n2 W  N9 V) I

  83. , T7 [# r7 t$ R9 c+ T
  84. Text #2
    + w& \0 H# [/ N: ^! Z
  85. ID                                       : 41 x) s  C; d1 [: v
  86. Format                                   : UTF-8
    ; t& s) q3 i' V) Q/ h6 {
  87. Codec ID                                 : S_TEXT/UTF8( e0 Y  Z) K8 O
  88. Codec ID/Info                            : UTF-8 Plain Text; a& D; ]9 N4 X2 [! p7 K
  89. Duration                                 : 1 h 29 min
    & h- Z6 Z$ A" B, {* b
  90. Bit rate                                 : 105 b/s
    1 L; s! q! w5 t" z( T5 |% a
  91. Count of elements                        : 1577! r- w- C/ q/ B) h- I
  92. Stream size                              : 69.0 KiB (0%)
    3 U" L' I9 a# v9 t
  93. Title                                    : SDH SRT
    ) w8 x; M9 C1 D# _
  94. Language                                 : English
    - l4 d3 D0 q! h7 b4 F
  95. Default                                  : No7 m  O$ z) |- E& P2 F' G5 ?
  96. Forced                                   : No
    0 W8 z, H% p9 m9 W' p$ E! F; g
  97. 5 c7 n; K, _6 x* H! m4 b4 M! B
  98. Text #3# J# ]6 t$ _: @4 I5 a0 t
  99. ID                                       : 5
    3 l2 g9 F' N. ]
  100. Format                                   : PGS3 ]2 Y# d2 q2 E$ P
  101. Muxing mode                              : zlib
    5 b1 f; o3 S, W/ c
  102. Codec ID                                 : S_HDMV/PGS- s* k6 \! b" u! z0 \4 j6 v$ ?5 o* A8 b
  103. Codec ID/Info                            : Picture based subtitle format used on BDs/HD-DVDs
    3 n) F8 w  j: A
  104. Duration                                 : 1 h 29 min
    8 N; p' O& N/ [3 W3 ^) Y# B) D
  105. Bit rate                                 : 86.3 kb/s
    4 e/ M1 k) I7 i$ L
  106. Count of elements                        : 3155) J3 J+ c$ J( A' s8 }$ ]; x
  107. Stream size                              : 55.2 MiB (1%)
    ( T9 v- o, n# W- d; {# `9 E
  108. Title                                    : English SDH/ M: I( N4 J) f: x% D0 ?! P
  109. Language                                 : English) r; J& U. ~; x; h$ L' y
  110. Default                                  : No
    7 D1 E! |; B3 Y
  111. Forced                                   : No( k' c1 X+ N. z/ D7 ]

  112. 7 ]/ e- i* Y! s8 H" o7 V1 g
  113. Menu
    ' B% y+ b7 t9 G1 r
  114. 00:00:00.000                             : en:Chapter 01
    * U8 E3 Q3 i) t* a9 M
  115. 00:05:30.038                             : en:Chapter 02
    6 t7 h! M$ w1 q( S
  116. 00:07:29.157                             : en:Chapter 03
    7 \: ~8 }; f/ Q. a1 ?7 K% n! ^
  117. 00:14:52.642                             : en:Chapter 04
    $ b7 b; V: J' t* e" F( w8 G
  118. 00:18:25.229                             : en:Chapter 05( Y, H% l& U& s. k) ^  x/ _
  119. 00:27:32.901                             : en:Chapter 06
    ' t( D, E& B1 p; w
  120. 00:32:42.419                             : en:Chapter 07
    ) O  {% y* x4 d: s$ u/ r
  121. 00:38:26.763                             : en:Chapter 08
    ' E8 a7 E4 _7 ^4 J# r9 S
  122. 00:44:13.401                             : en:Chapter 09
    2 U  O, h( l/ K% q6 W
  123. 00:49:32.678                             : en:Chapter 10( \1 ^: I( p& @& [7 {( |
  124. 00:50:49.838                             : en:Chapter 11
    , d* u0 L1 ^; U% W
  125. 00:53:33.794                             : en:Chapter 12
    7 N8 ~$ w. [! R1 [; z
  126. 00:54:33.854                             : en:Chapter 13  m: ?: _8 t. g4 C! ^+ Z
  127. 00:58:24.793                             : en:Chapter 14- s5 \% M8 A1 T1 I& l: W- J+ q
  128. 01:02:42.592                             : en:Chapter 15) |' u: z( T1 v: N+ z2 z5 d
  129. 01:04:07.635                             : en:Chapter 16) C; f: {" C4 B) h  ^
  130. 01:06:38.912                             : en:Chapter 17: j/ J3 J6 x* ~4 U% S1 S
  131. 01:15:42.329                             : en:Chapter 18/ s# M  x. b: j* Y) b
  132. 01:18:03.804                             : en:Chapter 19
    ' Z8 X3 N  g5 \5 N
  133. 01:25:44.306                             : en:Chapter 20- B5 W5 R# m/ B
  134. 01:28:44.653                             : en:Chapter 21
复制代码
5 u; ^9 b2 {- M. z& W3 M& e. [
倾销员/社会中坚 Salesman.1969.720p.BluRay.x264-NODLABS 7.00GB-2.png
. M) `& C6 `: V" B, T1 Y. J8 M% Z  T' s9 d6 u, L0 z

# L$ O3 |& v  t. z7 n0 l0 Q
- q8 i4 e3 y( i2 J1 ?4 m2 j( S  v8 q6 ^( F
) @, P2 d0 J5 h0 _6 _1 ?0 B% e
9 l3 h& @% r6 x- a  \# F
回复

使用道具 举报

懒得打字嘛,点击右侧快捷回复 【右侧内容,后台自定义】
您需要登录后才可以回帖 登录 | 立即注册

本版积分规则

Archiver|手机版|小黑屋| 中国高清网 ( ICP备17007870号-2 ) |网站地图 

GMT+8, 2020-5-28 19:04 , Processed in 0.161688 second(s), 39 queries .

Powered by HDchina X3.4

Copyright 2017-2019©HDchina.All right reserved

返回顶部 联系我们