查看: 20|回复: 0

[剧情片] 终站 Indiscretion.Of.An.American.Wife.1953.720p.BluRay.x264-RedBlade 4.00GB

[复制链接]

 成长值: 5460

级别:资源管理组

注册时间
2017-10-20
最后登录
2020-5-28
听众
1
收听
0
主题
96235
蓝光币
152168 枚
贡献
20613 点
发表于 7 天前 | 显示全部楼层 |阅读模式
终站 Indiscretion.Of.An.American.Wife.1953.720p.BluRay.x264-RedBlade 4.00GB-1.png
* C& e1 y* N. Z" j: I+ ~
; f" r& Y! H& H# ~译  名 终站 / Indiscretion of an American Wife / Terminal Station Indiscretion / 尽头站9 t8 D3 Y1 H: V9 a
片  名 Stazione Termini
2 i/ g- F+ }& d6 f6 m年  代 1953
: v: K1 n' l6 E3 \' j" p" a: @产  地 意大利 / 美国
2 Q4 }  ^+ x4 g- H: b# t类  别 剧情 / 恋爱9 H$ C6 E. F) {2 I
语  言 英语 / 意大利语 / 法语. t: m& q( J0 ?& I8 t
上映日期 1953-04-02( I5 {( S' G& l- f
IMDb评分  6.2/10 from 2336 users) Y# Z: n4 u! F0 }+ t
IMDb链接  https://www.imdb.com/title/tt00463667 M2 T3 J1 ^6 c. U
豆瓣评分 7.3/10 from 411 users
: Q1 i) U6 M' V* Z: e豆瓣链接 https://movie.douban.com/subject/1298764/
9 Q! H9 ^( g: }  [+ f- S0 @片  长 90 分钟9 g0 e* d& u% ~: S/ J% i* c
导  演 Vittorio De Sica% Z/ P: h% S: {" M8 m% K. m
编  剧 Luigi Chiarini / Giorgio Prosperi
( m. s2 s) |, J! m$ B" Z主  演 Jennifer Jones
7 ]6 w& x6 i$ F; W7 V1 i! ^       Montgomery Clift
: L3 {* P) [* y; @       Gino Cervi
: `) ?1 u6 C. u# i. o       Richard Beymer
+ ?( O" }' n9 N" n0 V
7 t$ P7 F7 y* l: X
6 c6 R( H5 C1 r1 ^标  签 意大利 | 德·西卡 | 恋爱 | VittorioDeSica | 意大利电影 | CC | 维托里奥·德·西卡 | Vittorio_De_Sica
& \1 f" V( Z9 D4 k  K: l- I' n1 W6 s' S6 E* {- X' m8 Y2 @' N2 X
简  介  ( ?* s' s# R! Y' N* X$ ~

- Q* n5 l  l1 J  玛丽(珍妮弗·琼斯 Jennifer Jones 饰)在意大利度假时相逢了名为乔班尼(蒙哥马利·克利夫特 Montgomery Clift 饰)的男人,两人之间相互吸引,很快就走到了一路,相互陪伴度过了欢畅的两天。但是,欢畅的日子都是长久的,玛丽行将分开意大利前往巴黎,乔班尼劝说玛丽留下来,留在他的身旁,可是刚强的玛丽却去意已决,这让乔班尼很是的愤慨,他失手打了玛丽。* R& B  L9 l& ]. }- P! r+ P+ Z* p
  哀痛的玛丽预备搭上前往巴黎的火车,就在火车快要开动的时辰,乔班尼出现了,他掉臂危险穿越轨道来到玛丽的身旁,他的行为感动了玛丽,两人重建旧好。虽然错过了这一班火车,但下一班火车很快就来了,留给两人的时候越来越短了。3 j) d6 I7 Z3 X. h

7 m4 l9 W0 J/ H; r% u获奖情况  , r8 V, k) s4 t

7 G& T1 c" N5 ?$ l  第27届奥斯卡金像奖(1955)# ~' \, z) E! Z: W; \# p
  黑白片最好打扮设想(提名) 克里斯汀·迪奥) i% S& j9 _0 W3 H* d

9 `3 K2 }" Q' K8 \  _5 C2 Q" a: Y  第6届戛纳电影节(1953)
. Z/ P! [1 U! R! T3 O+ v  主比赛单元 金棕榈奖(提名) 维托里奥·德西卡% L- m& n/ g9 ?0 r7 l
  1. Video
    3 c4 {8 `* r  R. g2 R
  2. ID                                       : 1
    , N! ]  J8 y1 ]/ L5 u
  3. Format                                   : AVC
    . L- a) t4 l$ c1 V
  4. Format/Info                              : Advanced Video Codec
    " Q* |2 Z/ Y4 l  `
  5. Format profile                           : High@L4
    1 t! {" ~+ ~( ]8 O2 i) ~' [
  6. Format settings                          : CABAC / 8 Ref Frames
    0 G& n/ F5 f! o$ n3 S( I
  7. Format settings, CABAC                   : Yes
    : A9 E; O* d- c  {8 d
  8. Format settings, Reference frames        : 8 frames+ V8 e% Y$ b/ b
  9. Codec ID                                 : V_MPEG4/ISO/AVC8 E0 j& N% k: ^
  10. Duration                                 : 1 h 11 min6 o% D1 f% \- [% ]
  11. Bit rate                                 : 6 894 kb/s
    # _0 L1 w, p" M5 e- R$ d# C/ x
  12. Width                                    : 958 pixels1 M8 W9 i, @2 B/ X5 u' ^
  13. Height                                   : 720 pixels
    & W& V( F4 M0 Y) N
  14. Display aspect ratio                     : 4:3
    2 N+ s8 F# Y3 J$ E' o! I
  15. Frame rate mode                          : Constant+ l7 Z% C& F: l: y. V
  16. Frame rate                               : 23.976 (24000/1001/189150) FPS
    : g" ]4 N" d% h+ E* x
  17. Color space                              : YUV+ i( C- H# p4 H+ L0 r
  18. Chroma subsampling                       : 4:2:0
    6 h8 b3 Q3 w; D3 F1 E
  19. Bit depth                                : 8 bits: y# _6 u% T9 @8 K7 B$ v0 ~) x' Y* X8 ^
  20. Scan type                                : Progressive
    8 ]! e; h2 C+ I8 U8 B
  21. Bits/(Pixel*Frame)                       : 0.417  W- p% U, b% E- C- h
  22. Stream size                              : 3.45 GiB (86%)9 W5 X* {. O  H$ R3 @- |( ~
  23. Writing library                          : x264 core 160 r3000 33f9e14
    5 U3 K, G* a8 d. j0 D% g/ f
  24. Encoding settings                        : cabac=1 / ref=8 / deblock=1:-3:-3 / analyse=0x3:0x133 / me=umh / subme=9 / psy=1 / psy_rd=1.00:0.00 / mixed_ref=1 / me_range=16 / chroma_me=1 / trellis=2 / 8x8dct=1 / cqm=0 / deadzone=21,11 / fast_pskip=0 / chroma_qp_offset=-2 / threads=12 / lookahead_threads=1 / sliced_threads=0 / nr=0 / decimate=0 / interlaced=0 / bluray_compat=0 / constrained_intra=0 / bframes=3 / b_pyramid=2 / b_adapt=2 / b_bias=0 / direct=3 / weightb=1 / open_gop=0 / weightp=2 / keyint=240 / keyint_min=23 / scenecut=40 / intra_refresh=0 / rc_lookahead=60 / rc=crf / mbtree=1 / crf=17.0 / qcomp=0.60 / qpmin=0 / qpmax=69 / qpstep=4 / ip_ratio=1.40 / aq=3:0.60
    3 {* G7 x$ `2 \6 N
  25. Language                                 : English9 l' I: S" `, N
  26. Default                                  : Yes
    0 Z0 a; ]4 P% b9 E5 @$ D3 @
  27. Forced                                   : No
    ( K7 j/ U' X6 [/ i  A+ A; M- u

  28. ; {+ A8 ^6 c5 ~9 H7 i' b% K# X
  29. Audio9 w) _( l3 M7 }5 V9 B  C% s" [
  30. ID                                       : 2
    ; T$ V7 M/ j! ^' A6 X$ T- [" i' Z
  31. Format                                   : FLAC
    + M! y$ H8 W% K& x
  32. Format/Info                              : Free Lossless Audio Codec
    3 q4 B3 ]$ P7 z9 H! e, v
  33. Codec ID                                 : A_FLAC
    7 H/ n- u7 |0 V6 b2 A' `/ b- h
  34. Duration                                 : 1 h 11 min
    1 u" V& o6 J; P3 x
  35. Bit rate mode                            : Variable- G9 C+ k- u! D
  36. Bit rate                                 : 1 075 kb/s$ j  Z2 Z' v+ Y% t& U' U5 M! H
  37. Channel(s)                               : 2 channels9 c( ^1 I/ W' e* I9 F" a1 w+ T" D
  38. Channel layout                           : L R5 L! U) p7 D4 X; B
  39. Sampling rate                            : 48.0 kHz
    7 a- ~7 T. Z  B
  40. Frame rate                               : 11.719 FPS (4096 SPF)
    9 m/ R( K6 N) }' V$ m
  41. Bit depth                                : 24 bits
    $ }8 [7 X- r( r' ?/ ]% D
  42. Compression mode                         : Lossless
    % K5 \5 ~/ R; I* j
  43. Stream size                              : 551 MiB (13%)& V: Y& U  Y' k
  44. Writing library                          : libFLAC 1.3.1 (UTC 2014-11-25), t! \+ t& {; M" @- w; y
  45. Language                                 : English
    " U% w2 V) ?# R! B& T: ~
  46. Default                                  : Yes
    7 V( B4 ^. N7 w* ?5 F/ j9 r0 ^
  47. Forced                                   : No
    / Z, {$ U8 j) c

  48. ( V2 c1 c# R6 ]. P
  49. Text" J' t) x: _8 e5 b( i0 F- `
  50. ID                                       : 39 o" p7 `$ M$ D- f/ H
  51. Format                                   : PGS5 d; K* M$ B# j/ a
  52. Muxing mode                              : zlib
    $ m1 h6 K$ `2 d9 |$ c
  53. Codec ID                                 : S_HDMV/PGS! T4 @! ^% ]# e3 t/ C
  54. Codec ID/Info                            : Picture based subtitle format used on BDs/HD-DVDs
    , W0 |" l- L4 Y1 x, s/ z2 L6 q
  55. Duration                                 : 1 h 8 min
    + B8 c5 K$ b. m9 L; Q% U
  56. Bit rate                                 : 7 272 b/s7 L2 I; [2 x3 [& W
  57. Count of elements                        : 1142" f% w7 H3 c( ^6 k3 ~
  58. Stream size                              : 3.59 MiB (0%)
    & p. A! ?3 c1 |( Y
  59. Language                                 : English
    5 W+ x- e/ ~/ U( ]+ V- z0 C
  60. Default                                  : No
    ) n; Z( \% E+ V. f  O# p% Y6 K" d
  61. Forced                                   : No! d( J# ^, L6 c) o6 O' r1 u
  62. / [; o2 H6 H4 q- K) @6 \
  63. Menu
    1 I+ o7 i" A2 `3 R0 a9 I* Q1 ?4 Y
  64. 00:00:00.000                             : en:00:00:00.000
    1 S; G% _* z0 j" x6 f; J
  65. 00:08:20.291                             : en:00:08:20.2912 A+ e' q, I% u6 u: D% J: u. Q
  66. 00:14:02.759                             : en:00:14:02.7595 m4 N6 G! u/ ]& X2 c
  67. 00:20:25.683                             : en:00:20:25.683
    - @. F* k; Q8 w' E1 B2 x7 k
  68. 00:29:30.894                             : en:00:29:30.8945 ~: {7 |$ d/ g8 J7 U3 t0 C
  69. 00:36:56.548                             : en:00:36:56.548
    3 A6 `" s  w6 V1 e; ]9 i8 Z
  70. 00:45:48.245                             : en:00:45:48.245" _+ ~3 b( b7 u: h9 n7 d
  71. 00:54:31.435                             : en:00:54:31.435
    9 Y" [0 i- E3 N7 d+ d4 A. h
  72. 01:04:24.694                             : en:01:04:24.694
复制代码

  X0 c2 H* N$ i 终站 Indiscretion.Of.An.American.Wife.1953.720p.BluRay.x264-RedBlade 4.00GB-2.png
. Q/ Y4 b  m0 `- j2 Q. l
- _6 b% N, S% ]9 A$ S* t- J' @3 e! {2 h8 O$ Z

! T2 m9 g8 K+ `+ R9 n3 G% j9 V
$ b. V% b) @1 y  X; H$ I/ y% y9 n* l$ d

+ I0 S4 n# Y# P& ]
回复

使用道具 举报

懒得打字嘛,点击右侧快捷回复 【右侧内容,后台自定义】
您需要登录后才可以回帖 登录 | 立即注册

本版积分规则

Archiver|手机版|小黑屋| 中国高清网 ( ICP备17007870号-2 ) |网站地图 

GMT+8, 2020-5-28 20:18 , Processed in 0.145819 second(s), 39 queries .

Powered by HDchina X3.4

Copyright 2017-2019©HDchina.All right reserved

返回顶部 联系我们