查看: 41|回复: 1

[剧情片] 铁拳浪子 Homeboy.1988.720p.BluRay.x264-RedBlade 6.28GB

[复制链接]

 成长值: 5460

级别:资源管理组

注册时间
2017-10-20
最后登录
2020-5-28
听众
1
收听
0
主题
96235
蓝光币
152154 枚
贡献
20613 点
发表于 2020-5-20 16:04:22 | 显示全部楼层 |阅读模式
铁拳浪子 Homeboy.1988.720p.BluRay.x264-RedBlade 6.28GB-1.png   b9 ]( f, o- h2 l2 w
  p2 e' W5 n/ b) |' I. y  J
译  名 铁拳浪子2 N$ r2 {% H( u% o1 u0 w3 S3 t
片  名 Homeboy2 u0 f+ o- ]3 i) k
年  代 1988& {& s8 x7 l4 h& \
产  地 美国3 w8 S0 ~! @, B5 l3 v. W1 b
类  别 剧情 / 恋爱 / 活动" w$ _2 c- @0 m6 d6 V8 z
语  言 英语; D/ {! l0 q. h# M* F' z- D8 X$ G
上映日期 1988-08-24* h$ ^, a% _: _% I( H: M
IMDb评分  5.9/10 from 2142 users
3 _8 I& U8 S  wIMDb链接  https://www.imdb.com/title/tt0095316; F- w+ o1 I+ X# `
豆瓣评分 0/10 from 0 users: O3 D& j9 F9 ~  F1 X
豆瓣链接 https://movie.douban.com/subject/1301766/* S) L- q% R1 O0 k8 N4 p
片  长 116 分钟
: z2 H* D9 A2 L  J导  演 迈克尔·塞瑞岑 Michael Seresin
! W, C3 y5 y# G9 u8 ]编  剧 米基·洛克 Mickey Rourke5 c* A4 E' M: R2 Y
主  演 Mickey Rourke
7 R5 W: r2 f/ r5 f! b       Christopher Walken4 r2 C1 Y0 {7 G* b' }

- T" L, s$ W+ T* N) j/ X+ s% x  K% U- |9 i8 n
标  签 Mickey_Rourke | 活动 | 美国电影 | 美国 | 肉搏 | Walken | Christopher | 1988! N% \, B" T+ ], ?

- s( y- ~! U2 {2 G9 l; k% J简  介  
. y" d3 O: p1 d2 M% Q* `
/ H+ n6 _8 f- Z$ ^0 X  暂无相关剧情先容  V+ n6 }0 I5 P# v" Y3 r  v
  1. Video
    % Y6 j) \( @( B$ U
  2. ID                                       : 11 X* X5 S! z5 C1 v( p( F0 }
  3. Format                                   : AVC0 B& e- g. {  Z0 f
  4. Format/Info                              : Advanced Video Codec
    # H6 v5 y3 m1 y7 i
  5. Format profile                           : High@L4
    6 s+ H+ C! x' j# a' R
  6. Format settings                          : CABAC / 8 Ref Frames
      |/ n" g0 H: b, C+ o
  7. Format settings, CABAC                   : Yes) Y2 o- O8 m) u; `
  8. Format settings, Reference frames        : 8 frames
    4 i+ g9 h2 g9 A9 H" l* B- V
  9. Codec ID                                 : V_MPEG4/ISO/AVC: f8 v+ _0 ?) w2 z; @! K# ]0 j
  10. Duration                                 : 1 h 56 min
    ! E) O3 y# b4 s3 `- T
  11. Bit rate                                 : 6 527 kb/s4 F/ ]: D* y% S+ F0 H& @0 S
  12. Width                                    : 1 280 pixels1 o$ d, d0 u( I8 ~$ P- |0 Z
  13. Height                                   : 690 pixels9 Q( r- M/ R+ D, m. ]+ b& W( C
  14. Display aspect ratio                     : 1.85:1
    : Z8 U% E9 F; [5 }
  15. Frame rate mode                          : Constant7 x1 f6 D0 d+ Y3 L) V; X
  16. Frame rate                               : 23.976 (24000/1001/189150) FPS( X. L  R: M3 ~) L) D) I. g- l
  17. Color space                              : YUV5 L3 e  Y- M7 I$ a; E
  18. Chroma subsampling                       : 4:2:0
    / I$ t( K/ Y; W% Z: O
  19. Bit depth                                : 8 bits
    7 J; s( f- @1 N/ ?* I# {& m
  20. Scan type                                : Progressive
    ' f5 t5 o5 N6 a  W0 ?
  21. Bits/(Pixel*Frame)                       : 0.308
    6 ^3 o4 i) B; P; X
  22. Stream size                              : 5.31 GiB (85%)) e& ~/ V% W  U" l
  23. Writing library                          : x264 core 160 r3000 33f9e144 \9 z$ `6 X0 _  x
  24. Encoding settings                        : cabac=1 / ref=8 / deblock=1:-3:-3 / analyse=0x3:0x133 / me=umh / subme=9 / psy=1 / psy_rd=1.00:0.00 / mixed_ref=1 / me_range=16 / chroma_me=1 / trellis=2 / 8x8dct=1 / cqm=0 / deadzone=21,11 / fast_pskip=0 / chroma_qp_offset=-2 / threads=12 / lookahead_threads=1 / sliced_threads=0 / nr=0 / decimate=0 / interlaced=0 / bluray_compat=0 / constrained_intra=0 / bframes=3 / b_pyramid=2 / b_adapt=2 / b_bias=0 / direct=3 / weightb=1 / open_gop=0 / weightp=2 / keyint=240 / keyint_min=23 / scenecut=40 / intra_refresh=0 / rc_lookahead=60 / rc=crf / mbtree=1 / crf=17.0 / qcomp=0.60 / qpmin=0 / qpmax=69 / qpstep=4 / ip_ratio=1.40 / aq=3:0.80
    ) A5 B3 k% f7 U- M( `
  25. Language                                 : English( T6 ?. l, ^1 s( b7 J- l
  26. Default                                  : Yes
    3 @: R& w& E/ H$ X5 @/ F( f
  27. Forced                                   : No
    & O# r1 x7 @1 m0 q) P

  28. 0 a, y7 F! @) l7 O% ?
  29. Audio6 J1 v' p* P7 p# @
  30. ID                                       : 25 k+ B1 K2 N# X/ Y6 \- R
  31. Format                                   : FLAC
    " [( j! C; |* S. J) {! m: y
  32. Format/Info                              : Free Lossless Audio Codec) F, c9 T0 V( K( M" r/ K
  33. Codec ID                                 : A_FLAC" Y& V- t& [7 S6 P/ e- w& W: z
  34. Duration                                 : 1 h 56 min
    1 d' _/ w" _. A/ v
  35. Bit rate mode                            : Variable
    1 B  n: ?& r% m. @( W6 I
  36. Bit rate                                 : 1 171 kb/s
    5 }, b9 }+ a1 j" I
  37. Channel(s)                               : 2 channels0 {& O. i+ }0 G! n# X; G( c
  38. Channel layout                           : L R
    5 U0 e, u8 k6 k: @
  39. Sampling rate                            : 48.0 kHz) j* Z) q! H7 m" m
  40. Frame rate                               : 11.719 FPS (4096 SPF)
    9 q% E6 E( T, @" G7 c7 \3 j: H0 O
  41. Bit depth                                : 24 bits
    : K% a# U) `# R
  42. Compression mode                         : Lossless
    ! ], m, k( y- h1 n" f5 N
  43. Stream size                              : 975 MiB (15%)
    1 X, F8 d" O4 V
  44. Writing library                          : libFLAC 1.3.1 (UTC 2014-11-25)
    + ~+ Y, F' D$ O+ Y7 k
  45. Language                                 : English
    2 ~" A4 A" w4 S' ^0 |+ ^
  46. Default                                  : Yes) ^9 Q0 Y, _4 Z. v  H
  47. Forced                                   : No, F% ^, n. F4 E' J9 R% W  \) @/ X3 G
  48. " o" K" n" e+ ~
  49. Text #1
    5 F3 O0 }' C: X! ?0 g% K
  50. ID                                       : 3% X  I0 F: L" n
  51. Format                                   : PGS! Z9 o0 ?  k2 {5 w7 h% a8 v
  52. Muxing mode                              : zlib
    . e: p& i, _  N# A$ Y( K: g
  53. Codec ID                                 : S_HDMV/PGS
    1 ?, z; H& A1 L6 k& L
  54. Codec ID/Info                            : Picture based subtitle format used on BDs/HD-DVDs
    . M/ U& s9 W3 @, R& u$ v+ i7 g; M4 x
  55. Duration                                 : 1 h 52 min  ~, l& E# s4 R1 G  p% s; ^
  56. Bit rate                                 : 16.6 kb/s7 a7 `/ y* Z  m: X4 r
  57. Count of elements                        : 2407
    ) r! J" F# s6 r; D
  58. Stream size                              : 13.4 MiB (0%)
    ! b0 h* _* M9 i+ K$ E8 }- x
  59. Language                                 : English
    1 r  N$ G# m# Z% y& }* M  v
  60. Default                                  : No; i$ v& F6 h  [
  61. Forced                                   : No6 G9 E5 G% y  |3 F+ k. }4 E

  62. ) q. d  m. \' @
  63. Text #2
    2 n( y0 ^" z/ L! c3 {5 V5 O
  64. ID                                       : 4
    9 D  O' \$ f7 |) R1 S* Y8 g+ L) K6 P
  65. Format                                   : UTF-8; a" `/ i- B" o( Q' ^1 ?3 y
  66. Codec ID                                 : S_TEXT/UTF84 }7 w; T0 \, f* E3 n; X
  67. Codec ID/Info                            : UTF-8 Plain Text! S; o  C. |  X0 x9 _: S0 F
  68. Duration                                 : 1 h 52 min5 l5 z  f) j5 i8 S. |3 p
  69. Bit rate                                 : 44 b/s
    ; L6 r; B$ Z' U2 Z! S" W- t- A/ X; J
  70. Count of elements                        : 1743
    2 D& F4 Q: q* V4 N1 G
  71. Stream size                              : 36.6 KiB (0%): P, s8 H' [1 h+ U0 _
  72. Language                                 : English0 L* m4 \0 {; T1 F
  73. Default                                  : No
    . ^8 l4 ]% E$ }- T; J' y
  74. Forced                                   : No
    4 j- h3 q: O; h$ {5 T+ W
  75. 6 ^/ H1 I3 X' U+ r
  76. Menu
    5 m! y  h4 N5 R3 a
  77. 00:00:00.000                             : en:00:00:00.000
    - a2 \* Y# _+ f- w9 N5 ^
  78. 00:07:47.342                             : en:00:07:47.342, p+ V7 L& c! V& N) Z- r
  79. 00:21:13.772                             : en:00:21:13.772
    ; V$ H0 j$ r+ S$ _+ }9 e
  80. 00:31:33.892                             : en:00:31:33.892
    * S. \+ \) v9 @
  81. 00:41:47.463                             : en:00:41:47.4636 c! J" e6 N6 m! U
  82. 00:53:43.762                             : en:00:53:43.762  Q- m7 z# P& [0 b( @
  83. 01:01:24.514                             : en:01:01:24.5142 E8 X9 r0 J6 A9 u7 F& c
  84. 01:11:17.148                             : en:01:11:17.148# ?# U% I' M( a9 ]
  85. 01:22:49.506                             : en:01:22:49.506
      y/ x" ^9 O; I, ]& T. u. T+ N
  86. 01:33:28.478                             : en:01:33:28.4784 O, C6 c  e; U& v( M
  87. 01:44:14.957                             : en:01:44:14.957
    3 L: b/ P! x8 ~$ I; Q5 }: \
  88. 01:53:39.187                             : en:01:53:39.187
复制代码
9 D; M' W  D: q* {
铁拳浪子 Homeboy.1988.720p.BluRay.x264-RedBlade 6.28GB-2.png ! \0 ?) c$ b( }  J% k  [7 J: A+ d
* E' a& s3 N! m7 g: E3 z

# n5 O- d, v0 P0 [, F( S; Z+ `4 M3 l! v0 n- v6 r
+ ~5 Y% @: n& r- n. T

( r2 S$ d2 x& q+ G7 Z8 N  C* V0 v3 y% i
回复

使用道具 举报

 成长值: 1290

级别:尊贵的会员

注册时间
2020-3-1
最后登录
2020-5-28
听众
2
收听
0
主题
0
蓝光币
331 枚
贡献
0 点
发表于 2020-5-20 19:11:56 | 显示全部楼层
楼主发贴辛苦了,谢谢楼主分享!我觉得中国高清电影网是注册对了!
回复

使用道具 举报

懒得打字嘛,点击右侧快捷回复 【右侧内容,后台自定义】
您需要登录后才可以回帖 登录 | 立即注册

本版积分规则

Archiver|手机版|小黑屋| 中国高清网 ( ICP备17007870号-2 ) |网站地图 

GMT+8, 2020-5-28 20:00 , Processed in 0.148579 second(s), 39 queries .

Powered by HDchina X3.4

Copyright 2017-2019©HDchina.All right reserved

返回顶部 联系我们