查看: 487|回复: 4

[REMUX.HEVC] 喋血战士/血卫 Bloodshot.2020.2160p.BluRay.REMUX.HEVC.DTS-HD.MA.TrueHD.7.1.Atmos-FGT 45.04GB

[复制链接]

 成长值: 6040

级别:资源管理组

注册时间
2017-10-20
最后登录
2020-7-9
听众
1
收听
0
主题
97756
蓝光币
168818 枚
贡献
21715 点
发表于 2020-4-29 21:59:52 | 显示全部楼层 |阅读模式
蹀血战士/血卫 Bloodshot.2020.2160p.BluRay.REMUX.HEVC.DTS-HD.MA.TrueHD.7.1.Atmos-FGT 45.04GB-1.png

译  名 蹀血战士 / 血卫(台)
片  名 Bloodshot
年  代 2020
产  地 中国大陆 / 美国
类  别 行动 / 科幻
语  言 英语
上映日期 2020(中国大陆) / 2020-03-13(美国)
IMDb评分  5.7/10 from 31009 users
IMDb链接  https://www.imdb.com/title/tt1634106
豆瓣评分 5.5/10 from 9477 users
豆瓣链接 https://movie.douban.com/subject/4830483/
片  长 109分钟
导  演 戴夫·威尔逊 Dave Wilson
编  剧 杰夫·瓦德洛 Jeff Wadlow / 埃里克·海瑟尔 Eric Heisserer / 凯文·范霍克 Kevin VanHook
主  演 范·迪塞尔 Vin Diesel
       艾莎·冈萨雷斯 Eiza González
       萨姆·修汉 Sam Heughan
       托比·凯贝尔 Toby Kebbell
       妲露拉·莱莉 Talulah Riley
       拉蒙尼·莫里斯 Lamorne Morris
       盖·皮尔斯 Guy Pearce
       悉达尔斯·达南杰 Siddharth Dhananjay
       泰勒·迈尔 Tyrel Meyer
       亚历克斯·安洛斯 Alex Anlos
       克莱德·伯宁 Clyde Berning
       杰里米·博阿多 Jeremy Boado
       塔梅尔·伯贾克 Tamer Burjaq
       亚历克斯·埃尔南德斯 Alex Hernandez
       约翰内斯·豪克尔·约翰内森 Jóhannes Haukur Jóhannesson
       帕特里克·克尔顿 Patrick Kerton


标  签 科幻 | 行动 | 美国 | 2020 | 超级豪杰 | 漫画改编 | 蹀血战士 | 奇异

简  介  

  电影按照勇士漫画改编,报告由范·迪塞尔饰演的兵士雷·加里森在战役中意外阵亡,被RST公司操纵尖端纳米技术起死复生,变身立即自愈、媲美超级电脑的超级豪杰——蹀血战士。苏醒的他固执于脑海中残余的记忆碎片,踏上为爱妻的复仇之路,却发现自己竟没法分清实在与虚幻...
  1. Video
  2. ID                                       : 1
  3. Format                                   : HEVC
  4. Format/Info                              : High Efficiency Video Coding
  5. Format profile                           : Main High@L4@High
  6. HDR format                               : SMPTE ST 2086, HDR10 compatible
  7. Codec ID                                 : V_MPEGH/ISO/HEVC
  8. Duration                                 : 1 h 49 min
  9. Bit rate                                 : 48.6 Mb/s
  10. Width                                    : 3 840 pixels
  11. Height                                   : 2 160 pixels
  12. Display aspect ratio                     : 16:9
  13. Frame rate mode                          : Constant
  14. Frame rate                               : 23.976 (24000/1001/189150) FPS
  15. Color space                              : YUV
  16. Chroma subsampling                       : 4:2:0 (Type 2)
  17. Bit depth                                : 10 bits
  18. Bits/(Pixel*Frame)                       : 0.244
  19. Stream size                              : 37.1 GiB (82%)
  20. Title                                    : Bloodshot.2020.2160p.BluRay.REMUX.HEVC.DTS-HD.MA.TrueHD.7.1.Atmos-FGT
  21. Language                                 : English
  22. Default                                  : No
  23. Forced                                   : No
  24. Color range                              : Limited
  25. Color primaries                          : BT.2020
  26. Transfer characteristics                 : PQ
  27. Matrix coefficients                      : BT.2020 non-constant
  28. Mastering display color primaries        : Display P3
  29. Mastering display luminance              : min: 0.0050 cd/m2, max: 4000 cd/m2
  30. Maximum Content Light Level              : 4004 cd/m2
  31. Maximum Frame-Average Light Level        : 602 cd/m2

  32. Audio #1
  33. ID                                       : 2
  34. Format                                   : MLP FBA 16-ch
  35. Format/Info                              : Meridian Lossless Packing FBA with 16-channel presentation
  36. Commercial name                          : Dolby TrueHD with Dolby Atmos
  37. Codec ID                                 : A_TRUEHD
  38. Duration                                 : 1 h 49 min
  39. Bit rate mode                            : Variable
  40. Bit rate                                 : 3 188 kb/s
  41. Maximum bit rate                         : 5 454 kb/s
  42. Channel(s)                               : 8 channels
  43. Channel layout                           : L R C LFE Ls Rs Lb Rb
  44. Sampling rate                            : 48.0 kHz
  45. Frame rate                               : 1 200.000 FPS (40 SPF)
  46. Compression mode                         : Lossless
  47. Stream size                              : 2.43 GiB (5%)
  48. Title                                    : Bloodshot.2020.2160p.BluRay.REMUX.HEVC.DTS-HD.MA.TrueHD.7.1.Atmos-FGT
  49. Language                                 : English
  50. Default                                  : Yes
  51. Forced                                   : No
  52. Number of dynamic objects                : 11
  53. Bed channel count                        : 1 channel
  54. Bed channel configuration                : LFE

  55. Audio #2
  56. ID                                       : 3
  57. Format                                   : DTS XLL
  58. Format/Info                              : Digital Theater Systems
  59. Commercial name                          : DTS-HD Master Audio
  60. Codec ID                                 : A_DTS
  61. Duration                                 : 1 h 49 min
  62. Bit rate mode                            : Variable
  63. Bit rate                                 : 3 907 kb/s
  64. Channel(s)                               : 8 channels
  65. Channel layout                           : C L R LFE Lb Rb Lss Rss
  66. Sampling rate                            : 48.0 kHz
  67. Frame rate                               : 93.750 FPS (512 SPF)
  68. Bit depth                                : 24 bits
  69. Compression mode                         : Lossless
  70. Stream size                              : 2.98 GiB (7%)
  71. Title                                    : Bloodshot.2020.2160p.BluRay.REMUX.HEVC.DTS-HD.MA.TrueHD.7.1.Atmos-FGT
  72. Language                                 : English
  73. Default                                  : No
  74. Forced                                   : No

  75. Audio #3
  76. ID                                       : 4
  77. Format                                   : AC-3
  78. Format/Info                              : Audio Coding 3
  79. Commercial name                          : Dolby Digital
  80. Codec ID                                 : A_AC3
  81. Duration                                 : 1 h 49 min
  82. Bit rate mode                            : Constant
  83. Bit rate                                 : 640 kb/s
  84. Channel(s)                               : 6 channels
  85. Channel layout                           : L R C LFE Ls Rs
  86. Sampling rate                            : 48.0 kHz
  87. Frame rate                               : 31.250 FPS (1536 SPF)
  88. Bit depth                                : 16 bits
  89. Compression mode                         : Lossy
  90. Stream size                              : 500 MiB (1%)
  91. Title                                    : Bloodshot.2020.2160p.BluRay.REMUX.HEVC.DTS-HD.MA.TrueHD.7.1.Atmos-FGT
  92. Language                                 : English
  93. Service kind                             : Complete Main
  94. Default                                  : No
  95. Forced                                   : No

  96. Audio #4
  97. ID                                       : 5
  98. Format                                   : AC-3
  99. Format/Info                              : Audio Coding 3
  100. Commercial name                          : Dolby Digital
  101. Codec ID                                 : A_AC3
  102. Duration                                 : 1 h 49 min
  103. Bit rate mode                            : Constant
  104. Bit rate                                 : 640 kb/s
  105. Channel(s)                               : 6 channels
  106. Channel layout                           : L R C LFE Ls Rs
  107. Sampling rate                            : 48.0 kHz
  108. Frame rate                               : 31.250 FPS (1536 SPF)
  109. Bit depth                                : 16 bits
  110. Compression mode                         : Lossy
  111. Stream size                              : 500 MiB (1%)
  112. Title                                    : Bloodshot.2020.2160p.BluRay.REMUX.HEVC.DTS-HD.MA.TrueHD.7.1.Atmos-FGT
  113. Language                                 : English
  114. Service kind                             : Complete Main
  115. Default                                  : No
  116. Forced                                   : No

  117. Audio #5
  118. ID                                       : 6
  119. Format                                   : AC-3
  120. Format/Info                              : Audio Coding 3
  121. Commercial name                          : Dolby Digital
  122. Codec ID                                 : A_AC3
  123. Duration                                 : 1 h 49 min
  124. Bit rate mode                            : Constant
  125. Bit rate                                 : 640 kb/s
  126. Channel(s)                               : 6 channels
  127. Channel layout                           : L R C LFE Ls Rs
  128. Sampling rate                            : 48.0 kHz
  129. Frame rate                               : 31.250 FPS (1536 SPF)
  130. Bit depth                                : 16 bits
  131. Compression mode                         : Lossy
  132. Stream size                              : 500 MiB (1%)
  133. Title                                    : Bloodshot.2020.2160p.BluRay.REMUX.HEVC.DTS-HD.MA.TrueHD.7.1.Atmos-FGT
  134. Language                                 : French
  135. Service kind                             : Complete Main
  136. Default                                  : No
  137. Forced                                   : No

  138. Audio #6
  139. ID                                       : 7
  140. Format                                   : AC-3
  141. Format/Info                              : Audio Coding 3
  142. Commercial name                          : Dolby Digital
  143. Codec ID                                 : A_AC3
  144. Duration                                 : 1 h 49 min
  145. Bit rate mode                            : Constant
  146. Bit rate                                 : 640 kb/s
  147. Channel(s)                               : 6 channels
  148. Channel layout                           : L R C LFE Ls Rs
  149. Sampling rate                            : 48.0 kHz
  150. Frame rate                               : 31.250 FPS (1536 SPF)
  151. Bit depth                                : 16 bits
  152. Compression mode                         : Lossy
  153. Stream size                              : 500 MiB (1%)
  154. Title                                    : Bloodshot.2020.2160p.BluRay.REMUX.HEVC.DTS-HD.MA.TrueHD.7.1.Atmos-FGT
  155. Language                                 : French
  156. Service kind                             : Complete Main
  157. Default                                  : No
  158. Forced                                   : No

  159. Audio #7
  160. ID                                       : 8
  161. Format                                   : AC-3
  162. Format/Info                              : Audio Coding 3
  163. Commercial name                          : Dolby Digital
  164. Codec ID                                 : A_AC3
  165. Duration                                 : 1 h 49 min
  166. Bit rate mode                            : Constant
  167. Bit rate                                 : 640 kb/s
  168. Channel(s)                               : 6 channels
  169. Channel layout                           : L R C LFE Ls Rs
  170. Sampling rate                            : 48.0 kHz
  171. Frame rate                               : 31.250 FPS (1536 SPF)
  172. Bit depth                                : 16 bits
  173. Compression mode                         : Lossy
  174. Stream size                              : 500 MiB (1%)
  175. Title                                    : Bloodshot.2020.2160p.BluRay.REMUX.HEVC.DTS-HD.MA.TrueHD.7.1.Atmos-FGT
  176. Language                                 : Spanish
  177. Service kind                             : Complete Main
  178. Default                                  : No
  179. Forced                                   : No

  180. Text #1
  181. ID                                       : 9
  182. Format                                   : UTF-8
  183. Codec ID                                 : S_TEXT/UTF8
  184. Codec ID/Info                            : UTF-8 Plain Text
  185. Duration                                 : 1 h 41 min
  186. Bit rate                                 : 45 b/s
  187. Count of elements                        : 1015
  188. Stream size                              : 33.9 KiB (0%)
  189. Title                                    : English-SRT
  190. Language                                 : English
  191. Default                                  : Yes
  192. Forced                                   : No

  193. Text #2
  194. ID                                       : 10
  195. Format                                   : PGS
  196. Muxing mode                              : zlib
  197. Codec ID                                 : S_HDMV/PGS
  198. Codec ID/Info                            : Picture based subtitle format used on BDs/HD-DVDs
  199. Duration                                 : 1 h 41 min
  200. Bit rate                                 : 28.0 kb/s
  201. Count of elements                        : 2030
  202. Stream size                              : 20.3 MiB (0%)
  203. Title                                    : English-PGS
  204. Language                                 : English
  205. Default                                  : No
  206. Forced                                   : No

  207. Text #3
  208. ID                                       : 11
  209. Format                                   : PGS
  210. Muxing mode                              : zlib
  211. Codec ID                                 : S_HDMV/PGS
  212. Codec ID/Info                            : Picture based subtitle format used on BDs/HD-DVDs
  213. Duration                                 : 1 h 43 min
  214. Bit rate                                 : 30.9 kb/s
  215. Count of elements                        : 2318
  216. Stream size                              : 22.9 MiB (0%)
  217. Title                                    : English-SDH-PGS
  218. Language                                 : English
  219. Default                                  : No
  220. Forced                                   : No

  221. Text #4
  222. ID                                       : 12
  223. Format                                   : PGS
  224. Muxing mode                              : zlib
  225. Codec ID                                 : S_HDMV/PGS
  226. Codec ID/Info                            : Picture based subtitle format used on BDs/HD-DVDs
  227. Duration                                 : 1 h 48 min
  228. Bit rate                                 : 23.1 kb/s
  229. Count of elements                        : 2234
  230. Stream size                              : 17.8 MiB (0%)
  231. Title                                    : French-PGS
  232. Language                                 : French
  233. Default                                  : No
  234. Forced                                   : No

  235. Text #5
  236. ID                                       : 13
  237. Format                                   : PGS
  238. Muxing mode                              : zlib
  239. Codec ID                                 : S_HDMV/PGS
  240. Codec ID/Info                            : Picture based subtitle format used on BDs/HD-DVDs
  241. Duration                                 : 1 h 48 min
  242. Bit rate                                 : 25.7 kb/s
  243. Count of elements                        : 2204
  244. Stream size                              : 19.9 MiB (0%)
  245. Title                                    : Spanish-PGS
  246. Language                                 : Spanish
  247. Default                                  : No
  248. Forced                                   : No

  249. Text #6
  250. ID                                       : 14
  251. Format                                   : PGS
  252. Muxing mode                              : zlib
  253. Codec ID                                 : S_HDMV/PGS
  254. Codec ID/Info                            : Picture based subtitle format used on BDs/HD-DVDs
  255. Duration                                 : 1 h 48 min
  256. Bit rate                                 : 598 b/s
  257. Count of elements                        : 48
  258. Stream size                              : 473 KiB (0%)
  259. Title                                    : Spanish-FORCED-PGS
  260. Language                                 : Spanish
  261. Default                                  : No
  262. Forced                                   : No

  263. Text #7
  264. ID                                       : 15
  265. Format                                   : PGS
  266. Muxing mode                              : zlib
  267. Codec ID                                 : S_HDMV/PGS
  268. Codec ID/Info                            : Picture based subtitle format used on BDs/HD-DVDs
  269. Duration                                 : 1 h 44 min
  270. Bit rate                                 : 267 b/s
  271. Count of elements                        : 24
  272. Stream size                              : 205 KiB (0%)
  273. Title                                    : French-PGS
  274. Language                                 : French
  275. Default                                  : No
  276. Forced                                   : No

  277. Text #8
  278. ID                                       : 16
  279. Format                                   : PGS
  280. Muxing mode                              : zlib
  281. Codec ID                                 : S_HDMV/PGS
  282. Codec ID/Info                            : Picture based subtitle format used on BDs/HD-DVDs
  283. Duration                                 : 1 h 44 min
  284. Bit rate                                 : 267 b/s
  285. Count of elements                        : 24
  286. Stream size                              : 205 KiB (0%)
  287. Title                                    : French-FORCED-PGS
  288. Language                                 : French
  289. Default                                  : No
  290. Forced                                   : No

  291. Menu
  292. 00:00:00.000                             : en:Chapter 01
  293. 00:07:06.384                             : en:Chapter 02
  294. 00:13:55.918                             : en:Chapter 03
  295. 00:20:36.860                             : en:Chapter 04
  296. 00:25:05.545                             : en:Chapter 05
  297. 00:32:11.179                             : en:Chapter 06
  298. 00:41:41.582                             : en:Chapter 07
  299. 00:46:39.379                             : en:Chapter 08
  300. 00:53:35.462                             : en:Chapter 09
  301. 01:02:28.786                             : en:Chapter 10
  302. 01:08:59.385                             : en:Chapter 11
  303. 01:12:42.441                             : en:Chapter 12
  304. 01:19:15.792                             : en:Chapter 13
  305. 01:26:49.996                             : en:Chapter 14
  306. 01:31:07.295                             : en:Chapter 15
  307. 01:38:31.989                             : en:Chapter 16
复制代码

蹀血战士/血卫 Bloodshot.2020.2160p.BluRay.REMUX.HEVC.DTS-HD.MA.TrueHD.7.1.Atmos-FGT 45.04GB-2.png 蹀血战士/血卫 Bloodshot.2020.2160p.BluRay.REMUX.HEVC.DTS-HD.MA.TrueHD.7.1.Atmos-FGT 45.04GB-3.png 蹀血战士/血卫 Bloodshot.2020.2160p.BluRay.REMUX.HEVC.DTS-HD.MA.TrueHD.7.1.Atmos-FGT 45.04GB-4.png







本帖隐藏的下载地址需要VIP会员才可阅读,您需要升级才可阅读,点击这里升级VIP
回复

使用道具 举报

级别:群众演员 Lv.3

注册时间
2020-4-21
最后登录
2020-7-6
听众
4
收听
0
主题
0
蓝光币
146 枚
贡献
0 点
发表于 2020-4-30 00:12:13 | 显示全部楼层
想知道什么字幕?
回复

使用道具 举报

 成长值: 6040

级别:资源管理组

注册时间
2017-10-20
最后登录
2020-7-9
听众
1
收听
0
主题
97756
蓝光币
168818 枚
贡献
21715 点
 楼主| 发表于 2020-4-30 10:38:36 | 显示全部楼层
ycx060913 发表于 2020-4-30 00:12
想知道什么字幕?

有个东西叫字幕库,请了解下
回复

使用道具 举报

级别:荣升主角 Lv.5

注册时间
2019-6-7
最后登录
2020-7-9
听众
14
收听
0
主题
0
蓝光币
858 枚
贡献
0 点
QQ
发表于 2020-4-30 23:25:03 | 显示全部楼层

楼主太厉害了!楼主,电影应该很好看我觉得中国高清电影网真是个好地方!
回复

使用道具 举报

已抛锚 成长值: 930

级别:普通观众 Lv.2

注册时间
2019-7-29
最后登录
2020-5-4
听众
5
收听
0
主题
0
蓝光币
7 枚
贡献
0 点
发表于 2020-5-4 13:31:27 | 显示全部楼层

这东西我收了!谢谢楼主!中国高清电影网真好!但这部片为啥分不高呢?
回复

使用道具 举报

懒得打字嘛,点击右侧快捷回复 【右侧内容,后台自定义】
您需要登录后才可以回帖 登录 | 立即注册

本版积分规则

Archiver|手机版|小黑屋| 中国高清网 ( ICP备17007870号-2 ) |网站地图 

GMT+8, 2020-7-9 22:08 , Processed in 0.204655 second(s), 41 queries .

Powered by HDchina X3.4

Copyright 2017-2019©HDchina.All right reserved

返回顶部 联系我们