查看: 636|回复: 15

[动作片] 喋血战士/血卫 Bloodshot.2020.720p.BluRay.x264-WUTANG 6.11GB

[复制链接]

 成长值: 7735

级别:资源管理组

注册时间
2017-10-20
最后登录
2020-10-23
听众
1
收听
0
主题
104417
蓝光币
207774 枚
贡献
21715 点
发表于 2020-4-25 11:51:42 | 显示全部楼层 |阅读模式
蹀血战士/血卫 Bloodshot.2020.720p.BluRay.x264-WUTANG 6.11GB-1.png
8 }' |7 v" \9 h% b5 ]0 J+ L- K4 |! t  f: {9 a. z% P; ~  s) C
译  名 蹀血战士 / 血卫(台)' G; t- M# ^9 @/ d# ^
片  名 Bloodshot
' I& e% K7 y, D9 t4 H年  代 2020
: ^( `6 F  ~& S$ q8 _产  地 中国大陆 / 美国' }* a+ r3 g. B6 T6 o+ a6 ~1 b
类  别 行动 / 科幻" x; [; I4 }( T' o& S
语  言 英语$ i* P4 u5 U" }# ~: e% o
上映日期 2020(中国大陆) / 2020-03-13(美国)! p( Z4 w1 t; U
IMDb评分  5.7/10 from 22822 users
0 c( }7 I" q' x/ ~- B+ Y; P5 GIMDb链接  https://www.imdb.com/title/tt1634106. j. _1 D+ q8 `3 P/ ~8 s9 r" B
豆瓣评分 5.4/10 from 7376 users
9 P. t3 L+ q2 r0 N8 m" P豆瓣链接 https://movie.douban.com/subject/4830483/
  a# n7 T6 f& f片  长 109分钟
6 n% O5 V' `4 ^; D导  演 戴夫·威尔逊 Dave Wilson; D8 j" j; P& O, @3 k) J* e! g7 N
编  剧 杰夫·瓦德洛 Jeff Wadlow / 埃里克·海瑟尔 Eric Heisserer / 凯文·范霍克 Kevin VanHook8 S1 M2 Q* @: M7 a+ A
主  演 范·迪塞尔 Vin Diesel9 ?5 B6 T9 A1 a  \
       艾莎·冈萨雷斯 Eiza González) q/ f$ ~( Q; b, Y/ Y
       萨姆·修汉 Sam Heughan! Y* M* `  D8 j* K! K# E6 e
       托比·凯贝尔 Toby Kebbell
9 l9 [# s7 y% u  ]       妲露拉·莱莉 Talulah Riley
+ t* \' A2 \3 ]& T: c+ g% l6 g2 L       拉蒙尼·莫里斯 Lamorne Morris: H) N& F: z8 L# I# J
       盖·皮尔斯 Guy Pearce
1 G7 _& U' U% F8 S$ z/ ~) d- W: U4 U8 y       悉达尔斯·达南杰 Siddharth Dhananjay
  A+ r0 T, r/ r1 c5 ]       泰勒·迈尔 Tyrel Meyer) \/ \0 b5 Y  S) G# a3 A
       亚历克斯·安洛斯 Alex Anlos
. `9 x# T5 A4 I) g       克莱德·伯宁 Clyde Berning
- Z9 L% l- R- F" ^       杰里米·博阿多 Jeremy Boado' A* L  k0 ]9 Q* o9 C, C% ^5 |
       塔梅尔·伯贾克 Tamer Burjaq* J* @) _( Q2 S; U+ ^, a
       亚历克斯·埃尔南德斯 Alex Hernandez* b% G& ^/ D5 u( l& }, \
       约翰内斯·豪克尔·约翰内森 Jóhannes Haukur Jóhannesson
0 `4 P3 N; d8 Q0 I1 I2 a1 T8 q       帕特里克·克尔顿 Patrick Kerton/ H, r; o8 S  o/ J$ R

( A. P! g6 ^- r; o
. w) c$ x& }6 {: l6 `" Y" E1 u. C  V标  签 科幻 | 行动 | 美国 | 2020 | 超级豪杰 | 漫画改编 | 蹀血战士 | 奇异
2 x2 l) E  ?3 R
; F& C0 A- U# d$ E' j6 U1 [4 l简  介  
& w5 e# A1 M  r* h+ l
( q( R8 o2 K  b; f* p2 _  电影按照勇士漫画改编,报告由范·迪塞尔饰演的兵士雷·加里森在战役中意外阵亡,被RST公司操纵尖端纳米技术起死复生,变身立即自愈、媲美超级电脑的超级豪杰——蹀血战士。苏醒的他固执于脑海中残余的记忆碎片,踏上为爱妻的复仇之路,却发现自己竟没法分清实在与虚幻...
, C$ a7 r, _) s* O
  1. Video: @# E1 @  H' \& ^2 l
  2. ID                                       : 1
    5 B% k  N) }. b% z* a8 W
  3. Format                                   : AVC! w  `1 o$ f3 E! ^* i( [, ^) e
  4. Format/Info                              : Advanced Video Codec% r* ]! u. h8 i6 V
  5. Format profile                           : High@L4' e, O0 s9 @% ?5 |
  6. Format settings                          : CABAC / 12 Ref Frames
    ' Y) `9 }% n5 [
  7. Format settings, CABAC                   : Yes5 t0 ?0 q5 M! j, t
  8. Format settings, Reference frames        : 12 frames
    6 M- [8 x" o, x  Q! D
  9. Codec ID                                 : V_MPEG4/ISO/AVC
    % @6 @4 t/ T) I0 e4 P4 ^. X
  10. Duration                                 : 1 h 49 min* a, U# s& @6 @0 z( i5 L. f
  11. Bit rate                                 : 7 298 kb/s
    2 _. |8 T: @' Z& E; Z$ W
  12. Width                                    : 1 280 pixels6 n, q7 T0 b  u5 h/ D- H: L
  13. Height                                   : 534 pixels
      B- V! V% }: R( k: N) J
  14. Display aspect ratio                     : 2.40:1& g/ w$ {$ \' N
  15. Frame rate mode                          : Constant
    ( _3 ~9 x& f! I" X3 k0 s% C# W; `3 e" Y
  16. Frame rate                               : 23.976 (24000/1001/189150) FPS
    & o5 E5 j) F/ a8 [( N6 c) m$ c
  17. Color space                              : YUV
    * L! j! }% F& S! ?
  18. Chroma subsampling                       : 4:2:0
    ' V. a  R, c) Z2 [1 M
  19. Bit depth                                : 8 bits, y/ C" t" x7 C/ H1 u2 O
  20. Scan type                                : Progressive
    ( l& m& R+ ^; l" G6 L# T
  21. Bits/(Pixel*Frame)                       : 0.445" Q" R8 G$ X/ T3 M
  22. Stream size                              : 5.57 GiB (91%)
    + K0 d+ D" ]/ p) C" W6 H
  23. Writing library                          : x264 core 160 r3000 33f9e14
    . G: {* R" w6 G+ ?. X
  24. Encoding settings                        : cabac=1 / ref=12 / deblock=1:-3:-3 / analyse=0x3:0x133 / me=umh / subme=10 / psy=1 / psy_rd=1.00:0.00 / mixed_ref=1 / me_range=32 / chroma_me=1 / trellis=2 / 8x8dct=1 / cqm=0 / deadzone=21,11 / fast_pskip=0 / chroma_qp_offset=-2 / threads=12 / lookahead_threads=2 / sliced_threads=0 / nr=0 / decimate=0 / interlaced=0 / bluray_compat=0 / constrained_intra=0 / bframes=8 / b_pyramid=2 / b_adapt=2 / b_bias=0 / direct=3 / weightb=1 / open_gop=0 / weightp=2 / keyint=250 / keyint_min=23 / scenecut=40 / intra_refresh=0 / rc=crf / mbtree=0 / crf=15.4 / qcomp=0.60 / qpmin=0 / qpmax=69 / qpstep=4 / ip_ratio=1.40 / pb_ratio=1.30 / aq=3:0.809 X: l" Q2 n. T/ r6 A/ c$ f7 V
  25. Language                                 : English  m/ J; v! `# z  X' Q
  26. Default                                  : Yes
    1 y; z9 _- K0 a5 o8 j
  27. Forced                                   : No, a" R' i7 j, m+ m3 Y- T# T3 h  _* m/ @

  28. $ a* F) ^3 D( n1 L) ~+ \5 e: T
  29. Audio; C" y6 i& C* J* F+ K) ]
  30. ID                                       : 28 X: q8 \. c, ]' G
  31. Format                                   : AC-3
    1 D) P4 h2 L0 z! @4 n  }7 V
  32. Format/Info                              : Audio Coding 3
    3 R8 i# z7 `, q8 f, {$ M
  33. Commercial name                          : Dolby Digital' [( W* ^2 g) z+ l) Z/ E/ ^
  34. Codec ID                                 : A_AC3
    % b/ ?* q6 B4 O; g% w
  35. Duration                                 : 1 h 49 min
    ) l% [: K: y8 f  ~2 r
  36. Bit rate mode                            : Constant. K! d5 ^& `: Y! e
  37. Bit rate                                 : 640 kb/s% [% B  U. Z- j  B4 X1 b3 b9 i- v
  38. Channel(s)                               : 6 channels
    % ~) f+ X( K6 e3 @. l) y) a
  39. Channel layout                           : L R C LFE Ls Rs  O' I; n. l: V) a3 `4 j% a
  40. Sampling rate                            : 48.0 kHz
    : ]$ _- y$ z! t0 M
  41. Frame rate                               : 31.250 FPS (1536 SPF)
    ' u4 m9 y# D4 P7 S9 U& E" E. W" Q
  42. Bit depth                                : 16 bits" [5 v7 y2 t' p
  43. Compression mode                         : Lossy8 O. H- N3 c3 m# s; m& H5 y
  44. Stream size                              : 500 MiB (8%)
    - F* ?% y* v5 |
  45. Title                                    : English9 l6 V9 Q0 [8 z) C5 H
  46. Language                                 : English0 V% n4 J0 O  T% {$ G+ |. d# \3 @2 O7 r
  47. Service kind                             : Complete Main
    ! n; ?$ v- J4 E2 Y" U' L4 o# c
  48. Default                                  : Yes, x0 ?1 ~$ i* ^8 k6 P, G
  49. Forced                                   : No
    & d: @. m3 ^/ Y% R) W
  50. 6 t+ {' ]. k6 ?# Y; t
  51. Text #1
    3 z0 D+ c9 q' G6 s$ |- r* q) _
  52. ID                                       : 3& m  W0 _- ]2 O; J8 D7 \
  53. Format                                   : PGS3 l; P+ s. [; k' }, X
  54. Muxing mode                              : zlib; r; b& O; H( c; Q0 c4 U
  55. Codec ID                                 : S_HDMV/PGS
    6 Y  \* g+ L& d& L
  56. Codec ID/Info                            : Picture based subtitle format used on BDs/HD-DVDs, O& h0 I2 q/ p: B
  57. Duration                                 : 1 h 43 min
    ( w( G5 c) e, f) n" Z
  58. Bit rate                                 : 30.9 kb/s
    1 \* _5 a* \. c6 h7 \
  59. Count of elements                        : 23186 {# ~2 w) M# o5 g0 ?% C. y( {( M5 z
  60. Stream size                              : 22.9 MiB (0%)# N; g) i! ?: m* o- @5 m% H8 n! ?, Y
  61. Language                                 : English
    % v. U' _9 w. v) E. s# a0 |
  62. Default                                  : No
    , v5 g: f# H8 W9 }0 }
  63. Forced                                   : No
    ; z- P' t( V% a% `9 [, [8 V
  64. 5 Z- N7 [- a+ |8 F4 ^- t
  65. Text #2
    * Q! L& T! M4 C
  66. ID                                       : 4
    6 Q3 s6 ^8 R$ }" U, x, w2 E
  67. Format                                   : PGS
    " f/ t: Q5 i& D: V# g5 ~# O
  68. Muxing mode                              : zlib; M' K2 S* r# _
  69. Codec ID                                 : S_HDMV/PGS
    / C* R# ]# s7 `: l' I: v
  70. Codec ID/Info                            : Picture based subtitle format used on BDs/HD-DVDs
    ) B6 d4 l5 b" a
  71. Duration                                 : 1 h 41 min" [& y; G" e) k+ p9 s/ U1 M) j
  72. Bit rate                                 : 28.0 kb/s
    ; I$ [4 @2 {' f$ A5 e
  73. Count of elements                        : 2030
    " m. u* ^, A# d: {8 l
  74. Stream size                              : 20.3 MiB (0%)( y" w0 }! N8 ]9 v
  75. Language                                 : English
    / I3 c& U4 A& R6 s$ S$ h
  76. Default                                  : No/ D% G4 U9 _* i" j0 x' O: \
  77. Forced                                   : No8 Q+ \" W( G/ x- L

  78. 7 V" H0 r% i8 ]( n# F
  79. Text #32 f) G7 X2 @- H6 Q* U
  80. ID                                       : 5+ P/ |" x% b5 D, B. E
  81. Format                                   : PGS
    , X8 G- R* H/ Q3 R% L1 n* W! w, K
  82. Muxing mode                              : zlib' G# Y; t* s6 Q2 s
  83. Codec ID                                 : S_HDMV/PGS$ y9 g5 o$ E6 D3 \& N/ i* |0 }  D) z
  84. Codec ID/Info                            : Picture based subtitle format used on BDs/HD-DVDs
    + Q; x, ^3 B* m/ a6 N
  85. Duration                                 : 1 h 48 min
    8 O: p% a% f; ~$ `9 W$ x( J' v
  86. Bit rate                                 : 23.1 kb/s" E8 R; U* K3 L: y+ d
  87. Count of elements                        : 2234( d( J  t- B  @; ?) l
  88. Stream size                              : 17.8 MiB (0%)
    9 Q- S; e# b) ]8 T$ ^
  89. Language                                 : French+ j3 y6 R& w1 L* g* C+ K
  90. Default                                  : No
    $ Y# _+ \) u5 S7 R: o
  91. Forced                                   : No1 I" q! P# U+ P$ D" H# i  n1 p6 C
  92. 8 O. N. [5 ]5 ~
  93. Text #4* Y; U- o+ x' F  A8 T; ]+ V
  94. ID                                       : 6
    1 G6 W" r; c$ M" q# [
  95. Format                                   : PGS! n; P  O/ T  j- p* z5 U5 R
  96. Muxing mode                              : zlib; M' w# \. ]3 b/ c( w+ \. J2 S
  97. Codec ID                                 : S_HDMV/PGS
    : g( E0 T5 i4 y, w+ k
  98. Codec ID/Info                            : Picture based subtitle format used on BDs/HD-DVDs
    4 F  o+ k3 G( m. ?0 {3 b+ G) I
  99. Duration                                 : 1 h 48 min8 w- H2 Z/ `4 S# \0 e; U( V* {
  100. Bit rate                                 : 25.7 kb/s6 G% O& n9 k1 r3 M- W- X
  101. Count of elements                        : 22041 c$ I4 A9 V5 A+ j
  102. Stream size                              : 19.9 MiB (0%)
    8 [/ F; t4 t- Q3 q; ~
  103. Language                                 : Spanish
    6 _: c# g- I2 T5 S% ~5 \6 C8 l
  104. Default                                  : No% f# \/ d. m9 g% A/ i' ]
  105. Forced                                   : No
    " D: `) }) w7 g3 D; E
  106. : U* U$ Z) s% R' l& a
  107. Text #59 T* c! L, x0 i3 H+ w& e
  108. ID                                       : 7
    4 M( W4 s, P  g  b7 n# f: A
  109. Format                                   : PGS
    9 d+ p, P* h8 S; ~# V
  110. Muxing mode                              : zlib
    ! u: T  N- p  F# z+ n
  111. Codec ID                                 : S_HDMV/PGS
    7 M3 ~0 `1 P4 }3 {
  112. Codec ID/Info                            : Picture based subtitle format used on BDs/HD-DVDs
    - n" d; {6 c+ Y$ ^. B3 }: c
  113. Duration                                 : 1 h 44 min- k" W! n* [, K/ l+ n
  114. Bit rate                                 : 267 b/s
      ?: _  `8 N4 @. b% J
  115. Count of elements                        : 24
    0 {: n1 z1 D  a
  116. Stream size                              : 205 KiB (0%)
    1 `+ ~2 w6 ]" o$ d  W8 v
  117. Language                                 : French5 s. |# X' k8 P6 x3 G2 }
  118. Default                                  : No3 O% {9 T( ?0 f
  119. Forced                                   : No9 F6 _) D' f+ s

  120. 0 y8 A5 b2 O" e
  121. Menu% Q( z7 B( y8 [; `3 R; A3 m
  122. 00:00:00.000                             : en:Chapter 01
    4 j% D& K: U+ i" S- W  u
  123. 00:07:06.384                             : en:Chapter 02! U9 i+ Q3 K# H7 [. g0 U& k5 a
  124. 00:13:56.210                             : en:Chapter 03
    $ d4 S6 B1 f9 {, |% f0 A
  125. 00:20:36.861                             : en:Chapter 04
    % H1 u, Z% \% U6 i' f9 J7 _
  126. 00:25:05.546                             : en:Chapter 05
    4 t+ K6 x) O. ~% m0 i  a' n
  127. 00:32:11.179                             : en:Chapter 06
    $ a9 I  ]# `6 S( F5 C& Z
  128. 00:41:41.499                             : en:Chapter 07
    : C& a& q' b# w% ]# |
  129. 00:46:39.380                             : en:Chapter 08& W2 E$ Q& _* G2 z
  130. 00:53:35.629                             : en:Chapter 09
    4 O) |$ f" I7 E
  131. 01:02:28.495                             : en:Chapter 103 O2 G! p& v- Z) H
  132. 01:08:59.344                             : en:Chapter 11( `4 k* x1 G1 q5 G4 K0 ^
  133. 01:12:42.525                             : en:Chapter 12+ w' @* ]4 c. p) L
  134. 01:19:15.918                             : en:Chapter 13! S0 N4 [) U+ G* Q- S, t# H' Z
  135. 01:26:49.996                             : en:Chapter 14: E6 r1 q" e, `2 A5 l
  136. 01:31:07.379                             : en:Chapter 150 |/ \8 W# U& c* O: r# W
  137. 01:38:31.531                             : en:Chapter 16
    : E2 f, z0 P. v1 T
  138. 01:44:11.245                             : en:Chapter 17
复制代码
3 C0 t! G3 C+ l* A( G
蹀血战士/血卫 Bloodshot.2020.720p.BluRay.x264-WUTANG 6.11GB-2.png * A+ f* v( L1 N, a, T. E
& w' C3 E! ^1 K( N1 x) _

8 ?; d/ n' n5 k, x. A
( j5 G4 z3 s+ I2 r' [4 J( B& c2 K& I6 ^/ v  y2 V

% A! c( l/ z5 w3 f- P* H3 Z5 x% o0 V
回复

使用道具 举报

级别:专业龙套 Lv.4

注册时间
2020-3-31
最后登录
2020-10-25
听众
4
收听
0
主题
0
蓝光币
15 枚
贡献
0 点
发表于 2020-4-25 17:17:53 | 显示全部楼层
楼主发贴辛苦了,谢谢楼主分享!我觉得中国高清电影网是注册对了!
回复

使用道具 举报

级别:群众演员 Lv.3

注册时间
2020-3-2
最后登录
2020-10-25
听众
6
收听
0
主题
0
蓝光币
370 枚
贡献
0 点
发表于 2020-4-26 08:51:57 | 显示全部楼层
谢谢楼主分享
回复

使用道具 举报

级别:初级观众 Lv.1

注册时间
2020-4-10
最后登录
2020-5-15
听众
2
收听
0
主题
0
蓝光币
1 枚
贡献
0 点
发表于 2020-4-26 10:15:27 | 显示全部楼层
楼主发贴辛苦了,谢谢楼主分享!我觉得中国高清电影网是注册对了!
回复

使用道具 举报

级别:初级观众 Lv.1

注册时间
2020-4-10
最后登录
2020-5-15
听众
2
收听
0
主题
0
蓝光币
1 枚
贡献
0 点
发表于 2020-4-26 10:17:56 | 显示全部楼层
楼主发贴辛苦了,谢谢楼主分享!我觉得中国高清电影网是注册对了!
回复

使用道具 举报

级别:荣升主角 Lv.5

注册时间
2019-4-11
最后登录
2020-10-24
听众
16
收听
0
主题
0
蓝光币
325 枚
贡献
0 点
发表于 2020-4-27 08:09:19 | 显示全部楼层
: f, ^8 r2 D+ ]# ?7 J2 u& b* Z
这个帖子不回对不起自己!我想我是一天也不能离开中国高清电影网
回复

使用道具 举报

级别:初级观众 Lv.1

注册时间
2020-4-12
最后登录
2020-9-9
听众
3
收听
0
主题
0
蓝光币
0 枚
贡献
0 点
发表于 2020-5-1 08:39:14 | 显示全部楼层
每天都来论坛看看有什么好的电影,已经成为生活中的习惯了
回复

使用道具 举报

级别:初级观众 Lv.1

注册时间
2020-4-10
最后登录
2020-5-15
听众
2
收听
0
主题
0
蓝光币
1 枚
贡献
0 点
发表于 2020-5-3 09:01:20 | 显示全部楼层
楼主发贴辛苦了,谢谢楼主分享!我觉得中国高清电影网是注册对了!
回复

使用道具 举报

级别:群众演员 Lv.3

注册时间
2020-2-10
最后登录
2020-10-23
听众
5
收听
0
主题
0
蓝光币
48 枚
贡献
0 点
发表于 2020-5-6 16:45:52 | 显示全部楼层

! z9 s! G. L& i. O# P% |3 N这个帖子不回对不起自己!我想我是一天也不能离开中国高清电影网
回复

使用道具 举报

级别:初级观众 Lv.1

注册时间
2020-5-6
最后登录
2020-5-6
听众
2
收听
0
主题
0
蓝光币
4 枚
贡献
0 点
发表于 2020-5-6 21:03:02 | 显示全部楼层
感谢楼主的辛苦
回复

使用道具 举报

懒得打字嘛,点击右侧快捷回复 【右侧内容,后台自定义】
您需要登录后才可以回帖 登录 | 立即注册

本版积分规则

Archiver|手机版|小黑屋| 中国高清网 ( ICP备17007870号-2 ) |网站地图 

GMT+8, 2020-10-25 21:34 , Processed in 0.216804 second(s), 40 queries .

Powered by HDchina X3.4

Copyright 2017-2019©HDchina.All right reserved

返回顶部 联系我们