查看: 65|回复: 2

[其他] 撩乱的裸舞曲 Aroused.By.Gymnopedies.2016.720p.BluRay.x264-REGRET 4.37GB

[复制链接]

 成长值: 4620

级别:资源管理组

注册时间
2017-10-20
最后登录
2020-3-28
听众
1
收听
0
主题
94092
蓝光币
122864 枚
贡献
18456 点
发表于 前天 00:33 | 显示全部楼层 |阅读模式
缭乱的裸舞曲 Aroused.By.Gymnopedies.2016.720p.BluRay.x264-REGRET 4.37GB-1.png
' {5 D: f8 i6 n; G& J, d9 k3 A
3 Z4 z: V/ h& z& y$ m# \译  名 缭乱的裸舞曲 / Aroused by Gymnopedies / 裸舞狂情9 f9 L9 m0 F7 a: V* N: D1 o; `( x9 |
片  名 ジムノペディに乱れる+ a! s9 o4 V. Y7 ]1 f7 ~* h
年  代 20168 n" q+ F. A9 K% u9 Z
产  地 日本* z6 z/ i$ J4 l+ i
类  别 情色" M1 s) i) z6 W$ R
语  言 日语8 f' T: d+ q5 U) e0 g8 w
上映日期 2016-11-26(日本)6 h- F! i8 K+ k* m" n  n
IMDb评分  5.5/10 from 164 users3 p5 t+ p- V- o6 C7 H$ u* ^3 G2 R+ o
IMDb链接  https://www.imdb.com/title/tt5999588
* f- p+ |0 K, ]2 P1 i豆瓣评分 5.9/10 from 2785 users8 ^6 I9 m% @, V- _3 y
豆瓣链接 https://movie.douban.com/subject/26872550/9 x  z9 x- p$ e3 n) n
片  长 81分钟: R& g6 x$ \; [0 t
导  演 行定勋 Isao Yukisada9 N0 Q. r/ c6 B$ l% ]; U' z
编  剧 行定勋 Isao Yukisada / 堀泉杏 Anne Horiizumi
' }  s9 \" m3 d6 N$ m4 K$ d主  演 板尾创路 Itsuji Itao' z; Y8 n; k2 z: V
       芦那すみれ Sumire Ashina: Q; ?0 `# W: F- y
       岡村いずみ Izumi Okamura
2 H; K" ?3 i3 N( R$ ]' ~
! w3 H. X" q6 A2 U4 b* A# z
* m. W# k  \. W+ M% T标  签 情色 | 日本电影 | 日本 | 粉红电影 | 2016 | 日影 | 粉红映画 | 日活- R. @9 L; Z7 L& |4 s

$ `; V+ F# j  L简  介  
/ f: Y, F+ O4 r7 T4 F$ v" d  g6 Z, f8 y: |8 x6 G1 _
  电影公司「日活」创业百年,最具代表性的一个品牌,是在七、 八十年月风行一时的「粉红映画」(日文叫Roman Porno,外洋称之为Pink Movie),亦即是浪漫化的成人电影。今年适逢「粉红映画」诞生四十五周年,「日活」出格筹划了「Roman Porno Reboot」计划,找来园子温、行定勳、中田秀夫、盐田明彦、白石和弥五位名导操刀,各拍一部粉红片。五人要跟足过往的游戏法则:每非常钟要有一场情慾戏、片长必须在七十至八非常钟之间、一概只要很低的製作费、要一星期内完成拍摄,其他一切自在发挥。成果证实五位导演不单玩得起,而且还玩得极有一手。7 k6 @( P! w$ e+ B- z7 g
  盐田的《湿濡的女人》最早曝光,重新归纳「粉红」典范《湿濡的情人们》,讲野性少女在海边故意湿身,然后贱价卖身给途经的汉子。白石执导的《雌猫们》一样向典范《雌猫们之夜》致敬,新版搬到池袋陌头上演,讲在网吧打趸的难民、单亲妈妈和不育人妻在夜间游荡的性活动。行定勳的《缭乱的裸舞曲》则是原创故事,谐星板尾创路演脑闭塞导演,堕入了女色圈套,搞到身败名裂。《半夜凶铃》导演中田秀夫初战成人天下,感动了九十后女优飞鸟凛全裸表演女同道故事《白百合》。历来出位的园子温就尽展其叛逆本质,以毒攻毒,用色情反色情拍了《Antiporno》,找来前AKB成员富手麻妙初次全裸主演。
. c4 L) y1 E% T* b3 B6 m! J& E  「粉红映画」之所以留名几十年,是由于「淫」得有道,本钱低但剧本踏实,而且是那时年轻新导考验身手的修罗场,《礼节师》奥斯卡导演泷田洋二郎、《谈谈情,跳舞蹈》的周防正行、《灭亡笔记》的金子修介、《后乐园》已故导演森田芳光等大导出道时都拍过粉红片。停产了廿八年的粉红系列今次一口气推出五片,别具意义,将连续于十一月底起在日本上映。+ u& }: w4 @. _" Z( i: E0 O9 x  k
  1. Video
    # O! |' w3 Y8 V% J. t0 b9 _  [9 Y
  2. ID                                       : 1
    ) E6 T; b1 D2 p9 h+ }  h; M
  3. Format                                   : AVC0 l0 J( g& G1 a
  4. Format/Info                              : Advanced Video Codec
    / x0 \! a- q2 t
  5. Format profile                           : High@L4
    6 _/ y% V) F0 M% Z  k
  6. Format settings                          : CABAC / 5 Ref Frames
    9 e' o9 b2 x" P0 A
  7. Format settings, CABAC                   : Yes; _8 G5 H$ d( a! ?) j
  8. Format settings, Reference frames        : 5 frames
    - z- j- B7 r. |9 M- h
  9. Codec ID                                 : V_MPEG4/ISO/AVC4 p5 f4 t* A7 }- p* y( o8 S
  10. Duration                                 : 1 h 22 min
    : s7 N$ J+ X: z) Q4 Q) O  `% A
  11. Bit rate                                 : 6 053 kb/s6 c) a7 p# Z+ @% e7 y
  12. Width                                    : 1 280 pixels; c# X! E/ V: D3 Z- y6 w
  13. Height                                   : 536 pixels5 q2 ?- e" l- H0 L; N
  14. Display aspect ratio                     : 2.40:1
    , o! ~, g; I- E; n; u4 H
  15. Frame rate mode                          : Constant) P: _% z0 p% z
  16. Frame rate                               : 24.000 FPS5 ^& w" S, g! k7 c8 e' N9 N
  17. Color space                              : YUV5 ?! c4 h; J1 H" T0 A5 R
  18. Chroma subsampling                       : 4:2:0
    ( M* _+ }' P8 A1 T# r0 M/ \& n7 B
  19. Bit depth                                : 8 bits9 A  J" x9 T) _( \
  20. Scan type                                : Progressive
    $ V& w2 G8 `" C! E0 H2 i( ?* J
  21. Bits/(Pixel*Frame)                       : 0.368
    : A5 C6 n. A/ T& `2 k: y
  22. Stream size                              : 3.50 GiB (80%)
    1 }) [# W) u' k9 t3 ]
  23. Writing library                          : x264 core 159 r2991 1771b55% u' b. r6 F5 M' K, @* A0 m
  24. Encoding settings                        : cabac=1 / ref=5 / deblock=1:-3:-3 / analyse=0x3:0x133 / me=umh / subme=9 / psy=1 / psy_rd=1.00:0.00 / mixed_ref=1 / me_range=16 / chroma_me=1 / trellis=2 / 8x8dct=1 / cqm=0 / deadzone=21,11 / fast_pskip=0 / chroma_qp_offset=-2 / threads=17 / lookahead_threads=1 / sliced_threads=0 / nr=0 / decimate=1 / interlaced=0 / bluray_compat=0 / constrained_intra=0 / bframes=3 / b_pyramid=2 / b_adapt=1 / b_bias=0 / direct=3 / weightb=1 / open_gop=0 / weightp=2 / keyint=240 / keyint_min=24 / scenecut=40 / intra_refresh=0 / rc_lookahead=50 / rc=2pass / mbtree=1 / bitrate=6053 / ratetol=1.0 / qcomp=0.60 / qpmin=0 / qpmax=69 / qpstep=4 / cplxblur=20.0 / qblur=0.5 / ip_ratio=1.40 / aq=1:1.00
    ( ^2 X' Q7 `& x
  25. Language                                 : English
    " B# M: K& J& K( d1 @+ i
  26. Default                                  : Yes& L  [2 J2 ^" |
  27. Forced                                   : No7 e9 ^: @4 K8 F* k$ k

  28. * f( R0 `- f* O5 d3 K
  29. Audio8 M* k& n1 }: L& r  G% U
  30. ID                                       : 2
    $ t8 F2 v4 M( C7 y" i0 h( S# n
  31. Format                                   : DTS
    6 K  `( }* u& b# ]1 g
  32. Format/Info                              : Digital Theater Systems5 y5 |5 O) F* n2 q6 m4 I9 [
  33. Codec ID                                 : A_DTS
    9 D8 A! V. O  g/ [# @/ {& k. x
  34. Duration                                 : 1 h 22 min
    ) h' ]. }1 [. S: ~; T4 q' g
  35. Bit rate mode                            : Constant. e2 B7 ]1 g0 Y+ J$ K
  36. Bit rate                                 : 1 509 kb/s
    0 P, u2 ]  o1 y$ y/ _7 |& C
  37. Channel(s)                               : 2 channels
    0 {& Y; }: ?) X0 L( C5 \
  38. Channel layout                           : L R# y8 X9 K+ B7 M1 S6 h' Q6 r' C
  39. Sampling rate                            : 48.0 kHz, N' G" l! E' [
  40. Frame rate                               : 93.750 FPS (512 SPF)7 W! t9 H1 Y$ F1 r1 z/ x& I
  41. Bit depth                                : 24 bits
    ( r5 _0 n/ ^. b6 K8 J* d
  42. Compression mode                         : Lossy
    ; b5 i- V3 e& _
  43. Stream size                              : 893 MiB (20%)- g" T0 S" \7 h# x7 I
  44. Language                                 : Japanese
    2 a. i# J" ?  ^/ h: l8 @- {
  45. Default                                  : Yes. z$ ]+ P) k' O
  46. Forced                                   : No
    ! m- T& V3 c; ~( ?" n. A% F8 W( h2 r

  47. / x2 s" h0 R0 s5 K+ I9 a
  48. Text #1
    / o( e9 S+ S, \) N0 t6 b
  49. ID                                       : 3; J, K7 S" ?6 B1 ^$ j
  50. Format                                   : UTF-8" b6 i$ |4 A$ O/ B; f, f# _- J
  51. Codec ID                                 : S_TEXT/UTF8
    ( \. w  a  Z8 p% t& \/ c
  52. Codec ID/Info                            : UTF-8 Plain Text  J9 f7 D' [. d' X# `9 V& b& A7 P/ u6 h
  53. Duration                                 : 1 h 22 min! T9 U$ \8 D& S5 @" b
  54. Bit rate                                 : 20 b/s4 Z% m9 g8 m1 z9 \# ]
  55. Count of elements                        : 618+ L6 B/ g( Z. l# y5 l; m& h' D9 L
  56. Stream size                              : 12.3 KiB (0%)
    0 {" i% j3 r! y( F( Y3 ]0 O
  57. Title                                    : English Forced# I8 m  l0 Z, Z% n3 g0 |8 o
  58. Language                                 : English
    & Y1 E  V) G3 `! E" q; ~: R
  59. Default                                  : Yes
    / G& V) f: ~8 ]( v! w( [/ ~
  60. Forced                                   : Yes4 G, x, E  Y$ l+ \2 \6 ~
  61. $ j9 ~* W) c1 F  s8 h# D7 O: X4 M
  62. Text #22 Z* o) }7 i2 w" g
  63. ID                                       : 4
    8 ]5 g! A5 Z# I* t: }, m  K
  64. Format                                   : UTF-8
      Y9 `1 @. b7 W
  65. Codec ID                                 : S_TEXT/UTF8  ]# T0 \5 t5 i) E) b; A
  66. Codec ID/Info                            : UTF-8 Plain Text
    " Z5 P5 H) s9 [1 M# z
  67. Duration                                 : 1 h 22 min
    6 v8 Y% G1 f, S% A
  68. Bit rate                                 : 25 b/s, n4 i; l' ?2 z' C; K& j
  69. Count of elements                        : 600
    . a# z8 n* `1 j7 q6 K
  70. Stream size                              : 15.3 KiB (0%)1 Q5 l* [  f% s" X4 G
  71. Title                                    : French: k2 P; K* d( k# U4 y' A8 V% ]  Y
  72. Language                                 : French& o1 N& D; }3 @7 x/ x8 {; N; b
  73. Default                                  : No6 j, _- P" l- E9 _5 W- _
  74. Forced                                   : No& X8 w4 y2 B: `9 E' U" Q2 `6 a0 s; u

  75. , J: c1 D* j1 O( ~6 J( K
  76. Menu1 F  n4 P: C+ {+ a4 I. ]. P) _
  77. 00:00:00.000                             : en:Chapter 01: b' E! y- g+ Q6 o6 a9 u* Y
  78. 00:08:34.083                             : en:Chapter 02
    + p9 {5 _, U9 C
  79. 00:15:31.417                             : en:Chapter 03$ A; a+ G/ V4 A4 R' W
  80. 00:22:54.875                             : en:Chapter 04
    $ U5 Q: Y# r* i! W% M$ ]' ?
  81. 00:29:56.833                             : en:Chapter 05
    9 M' K$ X4 E$ [- I* j
  82. 00:37:27.333                             : en:Chapter 06% I2 m5 X% Q3 v/ s7 Q. b/ V2 x
  83. 00:42:37.375                             : en:Chapter 07
    0 U( i$ }/ y/ U% [
  84. 00:47:48.458                             : en:Chapter 08
    6 ?2 p( t7 m: Z* U, {, Z
  85. 00:55:41.958                             : en:Chapter 09
    ! O  y) @0 o1 |0 r5 }
  86. 01:04:13.625                             : en:Chapter 10& Q0 z) I# c& N1 t) q$ {( |( n# j6 N
  87. 01:09:06.833                             : en:Chapter 11
    6 |7 B4 q4 d1 \$ S! V8 {" L
  88. 01:15:46.375                             : en:Chapter 12
    # N. P5 v, w7 G7 ]# p# V7 d
  89. 00:10:00.000                             : en:Chapter 13
复制代码
2 ]* D* S. r# \( k
缭乱的裸舞曲 Aroused.By.Gymnopedies.2016.720p.BluRay.x264-REGRET 4.37GB-2.png 6 H5 n- R. M% \+ Q* t# i

- U1 a. q% o$ j, A0 l
4 a/ s: ?# S9 ~" n: G2 [7 @7 k8 j7 Y6 @0 V$ ~& R

/ F8 a5 U$ {2 X, W
2 ~0 {/ G7 F" j% W2 O& h4 \2 x- }  i
回复

使用道具 举报

级别:荣升主角 Lv.5

注册时间
2019-6-9
最后登录
2020-3-28
听众
8
收听
0
主题
0
蓝光币
128 枚
贡献
0 点
发表于 前天 10:37 | 显示全部楼层

+ _+ u* y. {  w% j: c) R8 J3 k楼主太厉害了!楼主,电影应该很好看我觉得中国高清电影网真是个好地方!
回复

使用道具 举报

级别:群众演员 Lv.3

注册时间
2018-10-4
最后登录
2020-3-27
听众
10
收听
0
主题
0
蓝光币
20 枚
贡献
0 点
发表于 昨天 02:12 | 显示全部楼层
/ y, B; L3 H* }6 R
既然你诚信诚意的推荐了,那我就勉为其难的看看吧!中国高清电影网不走平凡路。
回复

使用道具 举报

懒得打字嘛,点击右侧快捷回复 【右侧内容,后台自定义】
您需要登录后才可以回帖 登录 | 立即注册

本版积分规则

Archiver|手机版|小黑屋| 中国高清网 ( ICP备17007870号-2 ) |网站地图

GMT+8, 2020-3-28 20:07 , Processed in 0.170795 second(s), 38 queries .

Powered by HDchina X3.4

Copyright 2017-2019©HDchina.All right reserved

返回顶部 联系我们