查看: 96|回复: 5

[动作片] 爆裂老兵 VFW.2019.720p.BluRay.x264-ROVERS 4.37GB

[复制链接]

 成长值: 4620

级别:资源管理组

注册时间
2017-10-20
最后登录
2020-3-28
听众
1
收听
0
主题
94092
蓝光币
122854 枚
贡献
18456 点
发表于 3 天前 | 显示全部楼层 |阅读模式
爆裂老兵 VFW.2019.720p.BluRay.x264-ROVERS 4.37GB-1.png
/ y5 m5 r$ f  S
% B, V  h3 r7 @, }* y- u" s2 e译  名 爆裂老兵 / Veterans of Foreign Wars / 外洋作战退伍甲士 / 美国国外战争退伍甲士 / 老兵1 l% `9 D+ R. F7 F
片  名 V.F.W.
# M, C* i' c% S5 y5 X; K6 q年  代 2019
2 l- {9 }3 x. |$ H  B8 h产  地 美国) s+ x. ^' h. S# S2 b( Y6 `3 z7 V% s
类  别 行动 / 可骇( z& C% F  u# T( H
语  言 英语- k$ T$ g0 h2 @) ]/ h: @1 [
上映日期 2019-09-21(美国)
$ Q+ F7 ^0 y+ Z8 P% NIMDb评分  6.3/10 from 1250 users
# y6 R3 C' w! l1 jIMDb链接  https://www.imdb.com/title/tt9894470
# D( Q+ F0 c7 W) l豆瓣评分 5.1/10 from 175 users+ m. I; P& a2 k
豆瓣链接 https://movie.douban.com/subject/30478334/  o' `! G( K- f0 O. `
片  长 92分钟6 ^  _6 _5 \9 M2 t$ x" s
导  演 Joe Begos' T/ |+ u% i4 n3 Y4 }
编  剧 马克斯·布莱利尔 Max Brallier / Matthew McArdle# V: F0 A' ~& K9 Q
主  演 多拉·马迪森·布鲁格 Dora Madison Burge! ^" {) a3 r) I
       史蒂芬·朗 Stephen Lang
+ C( l/ r5 t5 j) Z       乔治·温迪特 George Wendt
$ A  w' t* N. Z1 A+ e' x       威廉姆·赛德勒 William Sadler9 T- Y6 C( g5 O6 }$ U
       马丁·科夫  Martin Kove- Q* F4 Z1 [5 A
       大卫·帕特里克·凯利 David Patrick Kelly& o, S$ C5 {3 x: u6 v: W. L; c+ s
       谢拉·麦克康米克 Sierra McCormick2 t8 \# L; z8 t0 I% P$ T) c
       弗雷德·威廉森 Fred Williamson& _  q/ F) \  c% ^
       汤姆·威廉姆森 Tom Williamson
0 A" @1 D/ C6 L% s" a* B       Graham Skipper. C/ }1 a& [) {/ i
       Travis Hammer
# Q" b! G3 n* Q6 g( V. u) v# {       Josh Ethier
" ?  I2 p  m/ c. w. X       Linnea Wilson
5 h; p' W/ M- k1 O- U- _; @       Preston Fassel
% i! E' ]9 J. L6 `) e! C/ F/ V3 E       Taylor Harris
9 H' a- e6 Y: ?  _+ V       Leon Slaughter% k: X0 T0 C, {4 L
' `1 u7 Z* ]2 W% y4 m
- O' k# w9 y2 _, {+ r9 o& @
标  签 行动 | 美国电影 | 2019 | 可骇 | 美国 | 血腥 | 犯罪 | 史蒂芬·朗
1 U: W, H) C& {; u6 u
* v  a, S# V- w3 ]/ t简  介  ' a9 j9 {' a$ V

2 D% C! `1 Z. G0 l1 u# g4 X  史蒂芬·朗将主演行动可骇新片[V.F.W.]。影片被描写为[日落黄沙]和[活死人之夜]的连系体。故事报告弗雷德和他的战友们必须庇护他们当地的VFW基地。一个无辜的青少年将匹敌疯狂的毒贩和无情的朋克变种人军队。这将是这些越战老兵们平生中最冗长的夜晚。本片由乔·毕高斯执导,马克斯·布拉利尔、马修·麦卡德尔撰写剧本,将于本月在达拉斯开机。
' I# {) ~9 p4 t/ J
  1. Video0 E  w6 y/ I. w8 f7 j
  2. ID                                       : 1
    & P: B! @0 ^3 z3 m5 ^
  3. Format                                   : AVC9 T0 Z  k, J$ }& Y2 S8 r
  4. Format/Info                              : Advanced Video Codec
    " \, \( T8 I; O3 k) ~/ H# `
  5. Format profile                           : High@L4
    8 x" k( k5 d4 S& G
  6. Format settings                          : CABAC / 5 Ref Frames
    ! S- ]' |6 f' g2 |+ D
  7. Format settings, CABAC                   : Yes
    % N. ~7 Q5 m0 t4 n- S
  8. Format settings, Reference frames        : 5 frames
    7 I& |( K  S4 h5 f& t# D
  9. Codec ID                                 : V_MPEG4/ISO/AVC
    , m$ |& G/ M* m% ?; b/ ~; Y8 e
  10. Duration                                 : 1 h 31 min
    0 s1 r+ i# b$ D* J  h/ [1 B
  11. Bit rate                                 : 5 319 kb/s. D$ I, e) R- k1 g7 d' Q, F
  12. Width                                    : 1 280 pixels, }  b! S& j3 T
  13. Height                                   : 536 pixels; x, t2 _* F7 Y+ G8 H" ^
  14. Display aspect ratio                     : 2.40:1) A$ Q0 Q: n0 H3 v
  15. Frame rate mode                          : Constant
    : E' a; m7 ~. n
  16. Frame rate                               : 24.000 FPS
    ! I. p! p4 M) G9 y. i7 u
  17. Color space                              : YUV+ |- u; V. d0 V, N
  18. Chroma subsampling                       : 4:2:0  p$ X7 o& X3 p" g
  19. Bit depth                                : 8 bits3 w3 H. V, e$ S, O' Q" g' p8 R" Y% j
  20. Scan type                                : Progressive) _+ i  ~, p' P4 n! b0 A
  21. Bits/(Pixel*Frame)                       : 0.323, g9 A5 {1 |0 Y- T5 P0 T
  22. Stream size                              : 3.40 GiB (78%)
    ! b- x% ?9 q9 A2 \- x0 x/ R
  23. Writing library                          : x264 core 159 r2991 1771b55
    5 |* O' R1 C4 j! q0 i
  24. Encoding settings                        : cabac=1 / ref=5 / deblock=1:-3:-3 / analyse=0x3:0x113 / me=umh / subme=8 / psy=1 / psy_rd=1.00:0.00 / mixed_ref=1 / me_range=16 / chroma_me=1 / trellis=1 / 8x8dct=1 / cqm=0 / deadzone=21,11 / fast_pskip=1 / chroma_qp_offset=-2 / threads=17 / lookahead_threads=2 / sliced_threads=0 / nr=0 / decimate=1 / interlaced=0 / bluray_compat=0 / constrained_intra=0 / bframes=3 / b_pyramid=2 / b_adapt=1 / b_bias=0 / direct=3 / weightb=1 / open_gop=0 / weightp=2 / keyint=250 / keyint_min=24 / scenecut=40 / intra_refresh=0 / rc_lookahead=50 / rc=2pass / mbtree=1 / bitrate=5319 / ratetol=1.0 / qcomp=0.60 / qpmin=0 / qpmax=69 / qpstep=4 / cplxblur=20.0 / qblur=0.5 / ip_ratio=1.40 / aq=1:1.00
    " a: ~: v9 j: n' q% ^% f# i: J) Q
  25. Language                                 : English
    : n, O% I+ a1 u
  26. Default                                  : Yes
      [* V0 D  R' H
  27. Forced                                   : No
    " T( d1 l' v; {
  28. / y$ h. J3 s& \7 y+ _
  29. Audio: V& A% \! J; _4 d" J& L4 Q
  30. ID                                       : 2$ w8 k, l( t: c4 a8 t! R/ |
  31. Format                                   : DTS! ?! V+ v, U7 B& i4 I: q
  32. Format/Info                              : Digital Theater Systems; w+ s* ^1 m: b2 C" h& O$ I
  33. Codec ID                                 : A_DTS
    4 V$ t" e7 C4 W- ~% O3 M
  34. Duration                                 : 1 h 31 min2 V- b( S# Q9 x" h: M! \1 \  K
  35. Bit rate mode                            : Constant# u+ X' O0 m* y- U
  36. Bit rate                                 : 1 509 kb/s2 m/ _" i. s7 R# \+ g8 ~0 B+ s/ ]
  37. Channel(s)                               : 6 channels0 a8 E  l8 z$ S( `( }
  38. Channel layout                           : C L R Ls Rs LFE
    - p6 v' B: t4 Q2 w* Y
  39. Sampling rate                            : 48.0 kHz
    - d- u) |: v& \$ m( Y" O
  40. Frame rate                               : 93.750 FPS (512 SPF). a5 {, x0 Q3 Q  [; x
  41. Bit depth                                : 24 bits
    " n( _& T5 G: Q# a5 v
  42. Compression mode                         : Lossy, C$ w+ c8 X9 O6 M5 X
  43. Stream size                              : 989 MiB (22%)( p1 l; ~. c6 ]$ }2 x, i$ ^
  44. Language                                 : English
    % A0 |. J+ s# m2 m
  45. Default                                  : Yes1 w5 r# C3 O* M6 n6 X+ b
  46. Forced                                   : No
复制代码
# O" D# ^( h! M1 G
爆裂老兵 VFW.2019.720p.BluRay.x264-ROVERS 4.37GB-2.png
- x3 W# a4 W( L- F$ ~
8 ~2 H& [& T/ ~0 K2 Y4 z1 _6 i* ~7 @2 p0 ~# }% L5 U% x* Y0 r
/ c0 o" L# u  s9 S- ^1 _

. ?9 C- y# f. W7 D
3 }5 |( v" Z, j  c1 r$ F# L7 N2 M# w
回复

使用道具 举报

级别:荣升主角 Lv.5

注册时间
2019-4-11
最后登录
2020-3-28
听众
14
收听
0
主题
0
蓝光币
250 枚
贡献
0 点
发表于 前天 10:34 | 显示全部楼层
+ ?$ x8 }( O2 |2 {. E4 Z
楼主太厉害了!楼主,电影应该很好看我觉得中国高清电影网真是个好地方!
回复

使用道具 举报

级别:荣升主角 Lv.5

注册时间
2019-6-9
最后登录
2020-3-28
听众
8
收听
0
主题
0
蓝光币
128 枚
贡献
0 点
发表于 前天 10:45 | 显示全部楼层
7 s) K+ ]: K3 ^! z! y* A2 {  z
楼主太厉害了!楼主,电影应该很好看我觉得中国高清电影网真是个好地方!
回复

使用道具 举报

 成长值: 290

级别:尊贵的会员

注册时间
2020-3-1
最后登录
2020-3-28
听众
1
收听
0
主题
0
蓝光币
124 枚
贡献
0 点
发表于 前天 18:38 | 显示全部楼层
楼主发贴辛苦了,谢谢楼主分享!我觉得中国高清电影网是注册对了!
回复

使用道具 举报

级别:群众演员 Lv.3

注册时间
2018-10-4
最后登录
2020-3-27
听众
10
收听
0
主题
0
蓝光币
20 枚
贡献
0 点
发表于 昨天 02:13 | 显示全部楼层
楼主发贴辛苦了,谢谢楼主分享!我觉得中国高清电影网是注册对了!
回复

使用道具 举报

级别:群众演员 Lv.3

注册时间
2020-2-10
最后登录
2020-3-27
听众
1
收听
0
主题
0
蓝光币
38 枚
贡献
0 点
发表于 昨天 13:20 | 显示全部楼层
+ V  P# I, o: ~7 R+ G' \  I
这东西我收了!谢谢楼主!中国高清电影网真好!
回复

使用道具 举报

懒得打字嘛,点击右侧快捷回复 【右侧内容,后台自定义】
您需要登录后才可以回帖 登录 | 立即注册

本版积分规则

Archiver|手机版|小黑屋| 中国高清网 ( ICP备17007870号-2 ) |网站地图

GMT+8, 2020-3-28 19:59 , Processed in 0.204303 second(s), 38 queries .

Powered by HDchina X3.4

Copyright 2017-2019©HDchina.All right reserved

返回顶部 联系我们