查看: 66|回复: 4

[动作片] 女巫陷阱 Witchtrap.1989.DC.720p.BluRay.x264-CREEPSHOW 4.36GB

[复制链接]

 成长值: 4620

级别:资源管理组

注册时间
2017-10-20
最后登录
2020-3-28
听众
1
收听
0
主题
94092
蓝光币
122812 枚
贡献
18456 点
发表于 4 天前 | 显示全部楼层 |阅读模式
女巫圈套 Witchtrap.1989.DC.720p.BluRay.x264-CREEPSHOW 4.36GB-1.png
9 |) i; v! |9 O5 I7 y- j2 q" [8 B/ R/ [0 Y6 w) C5 p
译  名 女巫圈套 / Boszorkánycsapda. y8 B0 ?- V+ L" n
片  名 Witchtrap
1 N: V( E9 @5 F年  代 19895 v- [  N7 f; @* `1 s
产  地 美国
( {, W! O5 @0 n* ?( |5 z类  别 行动 / 惊悚 / 可骇
: J* d2 s6 a4 U% j- J- E6 J2 A语  言 英语6 e# `" t" h% E, X, k" I! G0 K
上映日期 1989
: {: E/ v& f8 I+ BIMDb评分  4.6/10 from 594 users& U6 L! p, p+ h2 k, Z% k# l
IMDb链接  https://www.imdb.com/title/tt0098662) S0 N( h. O+ H& K  V* j
豆瓣评分 0/10 from 0 users
! I0 l2 o5 e( {* q豆瓣链接 https://movie.douban.com/subject/5114917/
% w' t6 N* I9 p1 n  }8 p" D( c导  演 Kevin Tenney2 ]: [3 w( h% S+ z! a
编  剧 Kevin Tenney
6 {0 v  V- R+ X$ R: X9 k主  演 James W. Quinn
  c+ |% v2 R0 O, s       Kathleen Bailey
$ H4 T# G7 T. L" Y2 D       Judy Tatum! a0 V# U# b; N% O; l9 Z
& _4 U1 X: K0 O

# M9 P: S+ ^3 M$ B3 n& r标  签 惊悚 | 可骇 | 女巫 | 行动 | 仪式 | cult | 1989 | 美国电影" b! Z7 w( Y. o; [  P* ?

; }8 v+ j6 S. v+ u. t简  介  * b# B8 _( J- d1 Q. Q! k
, Y& u+ s+ M6 a! E# _
  Parapsychologists try to make an inn haunted by an evil witch’s ghost safe for guests.
4 J/ K, U7 z: j
  1. Video
    6 r+ K% |& ]' W& Z
  2. ID                                       : 1
    ! [, W6 M9 @, M+ X- a. h% X6 n' r. [) k
  3. Format                                   : AVC
    ! \  ]; d" z1 X: R! s
  4. Format/Info                              : Advanced Video Codec
    7 i) I, H5 g9 @4 N
  5. Format profile                           : High@L4
    $ v  y3 n% V2 I& a7 K. ~0 q
  6. Format settings                          : CABAC / 5 Ref Frames
    & }/ R3 V5 N" y1 _6 B
  7. Format settings, CABAC                   : Yes% S: x: A/ O& U6 W. U: T: x5 V
  8. Format settings, Reference frames        : 5 frames
    ! q- v9 _. N& x; \% q5 Y9 k; B3 a
  9. Codec ID                                 : V_MPEG4/ISO/AVC
    - A& X5 ]! h$ F& r& _6 B  q8 M
  10. Duration                                 : 1 h 31 min0 F; A/ v8 W1 j) U; L$ R
  11. Bit rate                                 : 6 593 kb/s3 G: H4 @! ^/ [& ]  ?2 H
  12. Width                                    : 1 280 pixels6 X! k: e! Q3 V# [
  13. Height                                   : 688 pixels
    7 {/ U) K1 n- p7 o
  14. Display aspect ratio                     : 1.85:1
    1 t3 k1 v6 {! s! q. B
  15. Frame rate mode                          : Constant( N/ N! N: l5 z5 _; `7 E
  16. Frame rate                               : 23.976 (24000/1001/189150) FPS
    4 b5 O  ?3 z' v4 H! {/ Y
  17. Color space                              : YUV
    ' q9 B6 r' v2 c$ |2 b
  18. Chroma subsampling                       : 4:2:05 M" D& `- p# _( U$ H( T. ?0 E
  19. Bit depth                                : 8 bits
      L  _1 r6 n1 H
  20. Scan type                                : Progressive+ [; I* R% @$ `# R( ?4 F  w% @2 y+ d
  21. Bits/(Pixel*Frame)                       : 0.3123 G/ }9 S1 Y' G0 I3 e
  22. Stream size                              : 4.20 GiB (96%)9 E- b  F- |: I5 Q/ e5 N
  23. Writing library                          : x264 core 159 r2991 1771b55: |1 \# D+ s3 z
  24. Encoding settings                        : cabac=1 / ref=5 / deblock=1:-2:-2 / analyse=0x3:0x133 / me=umh / subme=9 / psy=1 / psy_rd=1.00:0.00 / mixed_ref=1 / me_range=16 / chroma_me=1 / trellis=2 / 8x8dct=1 / cqm=0 / deadzone=21,11 / fast_pskip=0 / chroma_qp_offset=-2 / threads=12 / lookahead_threads=1 / sliced_threads=0 / nr=0 / decimate=1 / interlaced=0 / bluray_compat=0 / constrained_intra=0 / bframes=3 / b_pyramid=2 / b_adapt=2 / b_bias=0 / direct=3 / weightb=1 / open_gop=0 / weightp=2 / keyint=240 / keyint_min=23 / scenecut=40 / intra_refresh=0 / rc_lookahead=50 / rc=2pass / mbtree=1 / bitrate=6593 / ratetol=1.0 / qcomp=0.60 / qpmin=0 / qpmax=69 / qpstep=4 / cplxblur=20.0 / qblur=0.5 / vbv_maxrate=62500 / vbv_bufsize=78125 / nal_hrd=none / filler=0 / ip_ratio=1.40 / aq=1:0.70) O4 j. ?5 h/ n% Y8 L
  25. Default                                  : Yes
    . U% t, K" J2 Z! S0 [9 k9 s7 }- Y
  26. Forced                                   : No" C3 k2 R* F. K3 u! o! M
  27. - ]0 @. E! c* _9 e/ N$ E
  28. Audio
    ! p# H! r6 B5 E# r; w1 {
  29. ID                                       : 2
    5 `, R9 `; O, ~; a
  30. Format                                   : AC-3& n7 D$ f" q3 Y- I/ ]: k
  31. Format/Info                              : Audio Coding 3
    # R! W: c) e1 ^6 V
  32. Commercial name                          : Dolby Digital
    4 X* A$ c& }& d
  33. Codec ID                                 : A_AC37 M( j# j  R( B0 H# K: o0 S( E
  34. Duration                                 : 1 h 31 min+ Z8 l) u% K8 J6 W! H: Q
  35. Bit rate mode                            : Constant9 x; {5 {2 u. V) l5 G
  36. Bit rate                                 : 256 kb/s  t8 A# ~: C; i
  37. Channel(s)                               : 2 channels5 h/ b' [; N' M$ g/ Q5 o
  38. Channel layout                           : L R7 n6 b+ d9 d8 d6 X( L0 y
  39. Sampling rate                            : 48.0 kHz
    4 X9 r/ n. Y1 ^6 `4 L
  40. Frame rate                               : 31.250 FPS (1536 SPF)$ ~. r2 d$ c5 ^" H- ?/ X; A# w+ n4 e' `
  41. Bit depth                                : 16 bits
    , [# }: g6 }5 ~$ j( {, n6 ^& W
  42. Compression mode                         : Lossy; R4 B! {* l2 c+ T5 I5 b
  43. Stream size                              : 167 MiB (4%)  F0 F' _- F$ u- e9 d& {: ~, @
  44. Language                                 : English8 K5 k" \  ^5 I4 @& I8 I0 q
  45. Service kind                             : Complete Main
    6 y6 Y, F2 @8 D
  46. Default                                  : Yes
    8 p$ F5 z! M1 _% L0 W+ u9 B
  47. Forced                                   : No/ G- I! e3 Y- @- B# s
  48. " [, }% m" n, Q
  49. Menu$ x2 S: ^1 `# b. I) d
  50. 00:00:00.000                             : en:Chapter 01
    , d+ D. O6 ?) m; f8 ?
  51. 00:00:00.334                             : en:Chapter 02  H9 \8 _& f( s& S' m
  52. 00:12:52.689                             : en:Chapter 03
    ) U3 ]- |9 ~# F( e3 d3 O
  53. 00:25:45.335                             : en:Chapter 04
    * q& j; m; L2 F+ `  _6 j. ~) p
  54. 00:41:41.457                             : en:Chapter 05
    # A7 D- G( C, i3 J; w
  55. 01:04:17.187                             : en:Chapter 06
    # @5 `0 A; j+ j. O/ _, {
  56. 01:12:28.052                             : en:Chapter 07' A; M! u4 U  m7 L& i2 g) q
  57. 01:19:53.747                             : en:Chapter 08+ C8 `) m: A( F3 T6 |
  58. 01:25:52.147                             : en:Chapter 09
复制代码
; a& N7 F( `, `) |; N( {
女巫圈套 Witchtrap.1989.DC.720p.BluRay.x264-CREEPSHOW 4.36GB-2.png
$ g- h! D# `, c( E% M6 s
, n+ @# r& K2 s9 N  b6 ?/ e+ ?7 s. p3 I8 r- y

! o" n, k% D2 W# e2 R/ z
# y  f9 B( F2 M" z! U+ L) C
" R" X7 R1 @1 ?7 W. b) X& w1 f' u, O! y$ m2 y
回复

使用道具 举报

级别:荣升主角 Lv.5

注册时间
2019-6-9
最后登录
2020-3-28
听众
8
收听
0
主题
0
蓝光币
128 枚
贡献
0 点
发表于 前天 10:45 | 显示全部楼层
) K  s3 X* D5 [" G( g
楼主太厉害了!楼主,电影应该很好看我觉得中国高清电影网真是个好地方!
回复

使用道具 举报

 成长值: 290

级别:尊贵的会员

注册时间
2020-3-1
最后登录
2020-3-28
听众
1
收听
0
主题
0
蓝光币
124 枚
贡献
0 点
发表于 前天 18:45 | 显示全部楼层
楼主发贴辛苦了,谢谢楼主分享!我觉得中国高清电影网是注册对了!
回复

使用道具 举报

级别:群众演员 Lv.3

注册时间
2018-10-4
最后登录
2020-3-27
听众
10
收听
0
主题
0
蓝光币
20 枚
贡献
0 点
发表于 昨天 02:13 | 显示全部楼层
/ s" E* E# Q$ h5 c0 ?9 n- Y, |
这个帖子不回对不起自己!我想我是一天也不能离开中国高清电影网
回复

使用道具 举报

级别:初级观众 Lv.1

注册时间
2020-3-26
最后登录
2020-3-27
听众
1
收听
0
主题
0
蓝光币
3 枚
贡献
0 点
发表于 昨天 12:59 | 显示全部楼层
7 J' L4 F" |6 M: e4 m- b
这个帖子不回对不起自己!我想我是一天也不能离开中国高清电影网
回复

使用道具 举报

懒得打字嘛,点击右侧快捷回复 【右侧内容,后台自定义】
您需要登录后才可以回帖 登录 | 立即注册

本版积分规则

Archiver|手机版|小黑屋| 中国高清网 ( ICP备17007870号-2 ) |网站地图

GMT+8, 2020-3-28 18:57 , Processed in 0.147396 second(s), 38 queries .

Powered by HDchina X3.4

Copyright 2017-2019©HDchina.All right reserved

返回顶部 联系我们